<?xml version="1.0" standalone="no"?>
<!DOCTYPE svg PUBLIC "-//W3C//DTD SVG 1.1//EN" "http://www.w3.org/Graphics/SVG/1.1/DTD/svg11.dtd" >
<svg xmlns="http://www.w3.org/2000/svg">
<metadata>Generated by IcoMoon</metadata>
<defs>
<font id="icomoon" horiz-adv-x="1024">
<font-face units-per-em="1024" ascent="960" descent="-64" />
<missing-glyph horiz-adv-x="1024" />
<glyph unicode="&#x20;" horiz-adv-x="512" d="" />
<glyph unicode="&#xe900;" glyph-name="icon_ad_16px-1" d="M450.625 416.168h-64.757l32.338 96.085 32.419-96.085zM640.25 363.462h-25.802v168.898h26.333c10.176 0 19.187-1.711 27.034-5.133 7.84-3.308 14.451-8.271 19.834-14.888s9.421-14.774 12.109-24.47c2.81-9.697 4.218-20.934 4.218-33.711v-12.15c0-16.656-2.458-30.859-7.373-42.61-4.8-11.75-11.936-20.705-21.414-26.866-9.485-6.047-21.126-9.069-34.938-9.069zM42.656 106.669h938.669v682.664h-938.669v-682.664zM538.091 323.42l-95.493 249.155h-48.975l-94.966-249.155h55.997l17.681 52.534h91.86l17.725-52.534h56.173zM687.648 331.804c-14.278-5.59-30.074-8.385-47.398-8.385h-78.463v249.155h78.995c17.082 0 32.704-2.852 46.867-8.556 14.278-5.59 26.624-13.633 37.037-24.129 10.419-10.495 18.432-23.044 24.051-37.647 5.734-14.488 8.602-30.631 8.602-48.428v-11.807c0-17.683-2.867-33.825-8.602-48.428-5.619-14.603-13.632-27.152-24.051-37.647-10.298-10.381-22.643-18.424-37.037-24.129z" />
<glyph unicode="&#xe901;" glyph-name="icon_ad_16px" d="M837.818 712h-651.636c-35.989 0-65.164-28.654-65.164-64v-400c0-35.347 29.174-64 65.164-64h651.636c35.987 0 65.165 28.653 65.165 64v400c0 35.346-29.178 64-65.165 64zM186.182 768c-67.479 0-122.182-53.726-122.182-120v-400c0-66.272 54.703-120 122.182-120h651.636c67.482 0 122.182 53.728 122.182 120v400c0 66.274-54.701 120-122.182 120h-651.636zM634.433 331.229h-74.899v233.583h75.402c16.308 0 31.22-2.673 44.737-8.021 13.632-5.24 25.414-12.781 35.354-22.62 9.946-9.84 17.594-21.604 22.957-35.294 5.472-13.583 8.211-28.717 8.211-45.401v-11.070c0-16.577-2.739-31.711-8.211-45.401-5.363-13.69-13.011-25.455-22.957-35.294-9.83-9.732-21.613-17.272-35.354-22.62-13.626-5.241-28.71-7.861-45.24-7.861zM634.433 368.77h-24.631v158.342h25.134c9.716 0 18.318-1.604 25.806-4.813 7.482-3.101 13.792-7.754 18.931-13.957s8.992-13.85 11.565-22.941c2.682-9.091 4.019-19.626 4.019-31.604v-11.391c0-15.615-2.349-28.93-7.040-39.946-4.576-11.016-11.392-19.412-20.442-25.187-9.050-5.668-20.16-8.502-33.343-8.502zM433.039 564.81h12.734l91.153-233.583h-53.619l-16.92 49.251h-87.684l-16.877-49.251h-53.452l90.65 233.583h34.015zM391.622 418.179h61.814l-30.946 90.081-30.868-90.081z" />
<glyph unicode="&#xe902;" glyph-name="icon_ad_24px" d="M450.637 416.166h-64.759l32.337 96.090 32.421-96.090zM640.265 363.465h-25.805v168.896h26.33c10.18 0 19.191-1.711 27.034-5.133 7.838-3.311 14.451-8.273 19.836-14.886 5.385-6.618 9.421-14.775 12.113-24.474 2.807-9.694 4.211-20.932 4.211-33.711v-12.147c0-16.657-2.458-30.861-7.373-42.611-4.796-11.75-11.938-20.706-21.414-26.867-9.481-6.046-21.124-9.067-34.931-9.067zM42.667 106.667h938.667v682.667h-938.667v-682.667zM538.099 323.422l-95.492 249.153h-48.974l-94.966-249.153h55.997l17.681 52.531h91.861l17.724-52.531h56.171zM687.659 331.806c-14.276-5.589-30.076-8.384-47.394-8.384h-78.468v249.153h78.993c17.084 0 32.708-2.852 46.869-8.556 14.276-5.59 26.624-13.633 37.039-24.128s18.432-23.043 24.047-37.648c5.734-14.485 8.602-30.63 8.602-48.427v-11.806c0-17.685-2.867-33.826-8.602-48.431-5.615-14.601-13.632-27.149-24.047-37.645-10.3-10.381-22.647-18.423-37.039-24.128z" />
<glyph unicode="&#xe903;" glyph-name="Icon_Add_Image_24" d="M778.667 883.2v-138.667h-138.667v-64h138.667v-138.667h64v138.667h138.667v64h-138.667v138.667h-64zM597.333 746.667h-533.333v-682.667h816.969v435.2h-144.969v138.667h-138.667v108.8zM652.19 361.869l158.477-233.869h-682.667l256 377.263 182.857-268.864 85.333 125.47z" />
<glyph unicode="&#xe904;" glyph-name="icon_ads_16px" d="M314.673 721.735h502.607c52.55 0 95.149-41.427 95.149-92.53v-289.626c0-33.697-23.546-62.043-55.514-70.331v297.31c0 55.894-48.41 101.205-108.122 101.205h-501.218c5.989 30.732 33.752 53.972 67.098 53.972zM314.673 768h502.607c78.829 0 142.726-62.141 142.726-138.795v-289.626c0-59.444-44.8-108.712-103.36-117.614-3.968-52.512-50.739-93.958-107.853-93.958h-576.668c-59.716 0-108.125 45.312-108.125 101.203v337.348c0 55.894 48.41 101.205 108.125 101.205h27.377c6.367 56.376 55.501 100.237 115.171 100.237zM748.794 620.534h-576.668c-31.849 0-57.667-24.166-57.667-53.976v-337.348c0-29.811 25.818-53.978 57.667-53.978h576.668c31.846 0 57.664 24.166 57.664 53.978v337.348c0 29.811-25.818 53.976-57.664 53.976zM611.19 373.639c-0.677 1.868-1.97 3.56-3.878 5.076-1.908 1.576-4.586 3.122-8.033 4.639s-7.909 3.092-13.387 4.726c-6.093 1.868-11.88 3.968-17.357 6.302-5.416 2.334-10.218 5.047-14.403 8.14-4.124 3.151-7.386 6.798-9.787 10.941-2.339 4.143-3.508 8.957-3.508 14.442 0 5.31 1.231 10.124 3.693 14.442 2.462 4.376 5.908 8.111 10.34 11.203 4.431 3.151 9.663 5.572 15.695 7.265 6.093 1.692 12.772 2.538 20.035 2.538 9.91 0 18.557-1.692 25.944-5.076s13.11-8.023 17.172-13.917c4.124-5.893 6.186-12.632 6.186-20.218h-27.513c0 3.734-0.831 7.002-2.493 9.803-1.6 2.86-4.062 5.106-7.386 6.739-3.262 1.634-7.386 2.451-12.371 2.451-4.801 0-8.802-0.7-12.003-2.1-3.201-1.342-5.601-3.18-7.201-5.514-1.601-2.276-2.401-4.843-2.401-7.702 0-2.159 0.554-4.113 1.662-5.864 1.169-1.75 2.893-3.384 5.17-4.901s5.078-2.947 8.402-4.289c3.324-1.342 7.171-2.655 11.54-3.939 7.325-2.1 13.757-4.464 19.296-7.090 5.601-2.625 10.279-5.572 14.034-8.84s6.586-6.973 8.493-11.116c1.908-4.143 2.862-8.84 2.862-14.092 0-5.544-1.139-10.503-3.416-14.879s-5.571-8.081-9.879-11.116c-4.308-3.034-9.448-5.339-15.418-6.915s-12.649-2.364-20.035-2.364c-6.648 0-13.203 0.817-19.665 2.451-6.463 1.692-12.341 4.23-17.635 7.615-5.231 3.384-9.417 7.702-12.556 12.954s-4.708 11.466-4.708 18.643h27.79c0-3.968 0.646-7.323 1.939-10.065s3.108-4.96 5.447-6.652c2.401-1.692 5.232-2.917 8.494-3.676 3.324-0.759 6.956-1.138 10.895-1.138 4.801 0 8.74 0.642 11.818 1.925 3.139 1.284 5.447 3.064 6.924 5.34 1.539 2.275 2.308 4.843 2.308 7.702 0 2.276-0.369 4.318-1.108 6.127zM447.034 334.164h-27.698v127.437h41.546c8.987 0 17.204-1.459 24.651-4.376 7.509-2.86 14.003-6.973 19.481-12.341s9.694-11.787 12.648-19.256c3.016-7.411 4.524-15.667 4.524-24.769v-6.040c0-9.044-1.508-17.3-4.524-24.769-2.954-7.469-7.171-13.887-12.648-19.256-5.416-5.309-11.91-9.423-19.481-12.34-7.509-2.86-15.818-4.289-24.927-4.289h-13.572zM447.034 354.646h13.572c7.263 0 13.387 1.546 18.372 4.639 4.986 3.151 8.74 7.731 11.264 13.741 2.585 6.010 3.877 13.274 3.877 21.793v6.214c0 6.536-0.739 12.283-2.216 17.243-1.416 4.959-3.539 9.132-6.371 12.516s-6.308 5.923-10.433 7.615c-4.124 1.75-8.863 2.626-14.218 2.626h-13.848v-86.387zM356.643 461.601h-25.759l-49.948-127.437h29.452l9.3 26.87h48.314l9.323-26.87h29.544l-50.225 127.437zM343.813 430.748l-17.008-49.145h34.060l-17.052 49.145z" />
<glyph unicode="&#xe905;" glyph-name="icon_ads_24px" d="M138.667 832h885.333v-629.333h-64v565.333h-821.333v64zM426.512 313.553h21.719c11.622 0 21.423 2.517 29.402 7.556 7.974 5.137 13.982 12.599 18.022 22.391 4.134 9.792 6.204 21.628 6.204 35.507v10.125c0 10.645-1.182 20.011-3.546 28.092-2.266 8.081-5.662 14.878-10.193 20.395-4.531 5.513-10.095 9.647-16.695 12.403-6.596 2.854-14.182 4.279-22.75 4.279h-22.162v-140.749zM261.341 437.547l-27.217-80.073h54.502l-27.285 80.073zM896 704v-640h-896v640h896zM689.19 344.499c1.182-2.948 1.775-6.276 1.775-9.984 0-4.655-1.233-8.841-3.695-12.548-2.364-3.708-6.059-6.605-11.081-8.7-4.924-2.091-11.226-3.136-18.91-3.136-6.302 0-12.113 0.619-17.434 1.856-5.218 1.233-9.749 3.23-13.594 5.986-3.742 2.761-6.647 6.37-8.717 10.842-2.065 4.467-3.102 9.933-3.102 16.397h-44.467c0-11.695 2.509-21.82 7.535-30.374 5.022-8.555 11.721-15.59 20.092-21.103 8.469-5.517 17.877-9.651 28.215-12.407 10.342-2.662 20.834-3.994 31.471-3.994 11.819 0 22.507 1.284 32.060 3.849 9.553 2.569 17.779 6.323 24.67 11.268 6.895 4.941 12.164 10.978 15.812 18.108 3.644 7.134 5.466 15.211 5.466 24.243 0 8.559-1.527 16.209-4.582 22.959-3.051 6.75-7.582 12.787-13.589 18.112s-13.495 10.125-22.46 14.404c-8.862 4.275-19.153 8.128-30.878 11.55-6.993 2.091-13.146 4.228-18.466 6.417-5.316 2.185-9.801 4.514-13.444 6.989-3.644 2.47-6.4 5.133-8.273 7.983-1.771 2.854-2.658 6.037-2.658 9.553 0 4.659 1.28 8.845 3.84 12.553 2.56 3.802 6.404 6.797 11.524 8.981 5.12 2.283 11.524 3.422 19.204 3.422 7.979 0 14.579-1.331 19.797-3.989 5.321-2.662 9.259-6.323 11.819-10.982 2.662-4.561 3.989-9.886 3.989-15.97h44.028c0 12.356-3.298 23.339-9.899 32.939-6.498 9.604-15.659 17.161-27.477 22.673-11.823 5.517-25.66 8.273-41.515 8.273-11.622 0-22.31-1.378-32.060-4.134-9.655-2.756-18.027-6.703-25.118-11.836-7.091-5.039-12.608-11.123-16.546-18.253-3.938-7.036-5.909-14.878-5.909-23.531 0-8.939 1.869-16.781 5.615-23.531 3.84-6.75 9.058-12.689 15.659-17.826 6.699-5.039 14.379-9.459 23.049-13.261 8.764-3.802 18.022-7.223 27.776-10.266 8.764-2.662 15.906-5.231 21.419-7.701 5.517-2.47 9.801-4.992 12.855-7.561 3.055-2.47 5.12-5.227 6.204-8.269zM448.23 280.183c14.575 0 27.874 2.33 39.889 6.989 12.113 4.753 22.507 11.456 31.172 20.105 8.768 8.747 15.514 19.204 20.241 31.373 4.826 12.169 7.241 25.621 7.241 40.358v9.839c0 14.831-2.415 28.284-7.241 40.358-4.727 12.169-11.473 22.626-20.241 31.373-8.764 8.742-19.157 15.445-31.172 20.105-11.917 4.753-25.067 7.13-39.445 7.13h-66.484v-207.629h66.040zM281.871 487.812h-41.219l-79.927-207.629h47.129l14.881 43.78h77.312l14.918-43.78h47.277l-80.371 207.629z" />
<glyph unicode="&#xe906;" glyph-name="Icon_Arrow_Down_16px" d="M512.003 57.651l-227.091 243.309 70.181 65.505 108.909-116.686v518.221h96v-518.221l108.912 116.686 70.176-65.505-227.088-243.309z" />
<glyph unicode="&#xe907;" glyph-name="Icon_Arrow_Down_24" d="M747.78 337.195l-213.333-210.667-22.447-22.447-22.447 22.447-213.335 210.667 44.897 45.611 158.885-157.069v520.93h64v-520.93l158.886 157.069 44.894-45.611z" />
<glyph unicode="&#xe908;" glyph-name="Icon_Arrow_Left_24" d="M190.528 470.451l210.667 213.331 45.61-44.897-157.069-158.886h520.931v-64h-520.931l157.069-158.882-45.61-44.898-210.567 213.231-22.549 22.549 22.449 22.451z" />
<glyph unicode="&#xe909;" glyph-name="Icon_Arrow_Right_24" d="M622.805 683.781l210.667-213.334 22.447-22.447-22.447-22.451-210.667-213.333-45.611 44.898 157.069 158.886h-520.93v64h520.93l-157.069 158.884 45.611 44.897z" />
<glyph unicode="&#xe90a;" glyph-name="Icon_Arrow_Up_16px" d="M511.997 838.348l227.088-243.311-70.176-65.502-108.912 116.688v-518.223h-96v518.223l-108.909-116.688-70.181 65.502 227.091 243.311z" />
<glyph unicode="&#xe90b;" glyph-name="Icon_Arrow_Up_24" d="M276.219 558.805l213.334 210.667 22.447 22.449 22.451-22.449 213.333-210.667-44.898-45.61-158.886 157.069v-520.931h-64v520.931l-158.884-157.069-44.897 45.61z" />
<glyph unicode="&#xe90c;" glyph-name="Icon_Automatization_24px" d="M128-21.333v286.682c0 16.128 3.808 31.45 11.424 45.965s18.208 26.21 31.776 35.081l52.8 35.076c5.6-67.738 14.4-125.397 26.4-172.975s30.8-100.399 56.4-158.46l-178.8-71.369zM378.8 75.435c-28 53.227-48.8 109.675-62.4 169.348s-20.4 121.365-20.4 185.071c0 100.804 19.808 195.751 59.424 284.844s91.808 156.638 156.576 202.636c64.798-45.966 117.009-113.511 156.625-202.636s59.405-184.073 59.375-284.844c0-62.899-6.801-123.994-20.399-183.279-13.602-59.29-34.402-116.335-62.4-171.14h-266.401zM512 414.131c26.398 0 49.007 9.468 67.823 28.403 18.816 18.931 28.207 41.724 28.177 68.365 0 26.613-9.391 49.386-28.177 68.32-18.782 18.935-41.391 28.418-67.823 28.451-26.402 0-48.994-9.484-67.776-28.451-18.784-18.967-28.192-41.74-28.224-68.32 0-26.611 9.408-49.399 28.224-68.365 18.816-18.97 41.408-28.437 67.776-28.403zM896-21.333l-178.799 71.369c25.6 58.061 44.399 110.882 56.397 158.46 12.002 47.578 20.8 105.237 26.402 172.975l52.8-35.076c13.598-8.87 24.209-20.565 31.825-35.081s11.405-29.837 11.375-45.965v-286.682z" />
<glyph unicode="&#xe90d;" glyph-name="icon_bell_16px" d="M737.658 730.061c-117.319 130.652-323.868 136.559-448.849 12.84l-6.61-6.543c-58.019-57.434-90.538-134.793-90.538-215.384v-135.745l-55.321-123.213c-28.378-63.206 19.146-134.016 89.946-134.016h157.714c0-70.694 57.308-128 128-128s128 57.306 128 128h157.677c75.77 0 122.982 80.096 84.8 143.872l-69.024 115.308v146.317c0 72.304-26.931 142.151-75.795 196.565zM576 128h-128c0-35.347 28.654-64 64-64s64 28.653 64 64zM335.453 698.159c98.278 97.286 260.694 92.64 352.944-10.096 38.426-42.788 59.603-97.711 59.603-154.567v-154.938c0-5.646 1.536-11.191 4.454-16.068l73.491-122.753c12.723-21.261-3.014-47.962-28.269-47.962h-571.391c-23.601 0-39.442 23.603-29.982 44.672l58.065 129.329c1.81 4.031 2.744 8.382 2.744 12.781v142.416c0 63.85 25.763 125.139 71.73 170.642l6.611 6.543z" />
<glyph unicode="&#xe90e;" glyph-name="icon_bell_24px-1" d="M288.808 787.852c124.982 120.547 331.531 114.791 448.847-12.51 48.862-53.019 75.797-121.075 75.797-191.525v-142.567l69.026-112.35c33.545-54.596 1.173-121.468-58.573-136.9h-623.752c-55.67 14.4-88.531 73.655-63.814 127.296l55.321 120.055v132.265c0 78.524 32.518 153.9 90.537 209.861l6.61 6.376zM386.721 149.333c8.398-55.919 38.782-106.667 125.279-106.667s116.881 50.748 125.278 106.667h-250.557z" />
<glyph unicode="&#xe90f;" glyph-name="icon_bell_24px" d="M737.655 732.675c-117.316 127.301-323.866 133.058-448.847 12.51l-6.61-6.376c-58.019-55.961-90.537-131.337-90.537-209.863v-132.262l-55.321-120.055c-28.378-61.585 19.145-130.577 89.946-130.577h157.714c0-68.881 57.306-124.719 128-124.719s128 55.838 128 124.719h157.675c75.772 0 122.982 78.042 84.804 140.181l-69.026 112.35v142.567c0 70.45-26.935 138.506-75.797 191.525zM576 146.052h-128c0-34.441 28.655-62.362 64-62.362s64 27.921 64 62.362zM335.453 701.591c98.28 94.791 260.695 90.265 352.948-9.837 38.421-41.691 59.597-95.206 59.597-150.604v-150.964c0-5.504 1.54-10.906 4.459-15.659l73.485-119.607c12.727-20.71-3.008-46.724-28.267-46.724h-571.389c-23.6 0-39.441 22.997-29.982 43.524l58.065 126.012c1.809 3.925 2.743 8.166 2.743 12.454v138.761c0 62.214 25.763 121.932 71.73 166.269l6.61 6.375z" />
<glyph unicode="&#xe910;" glyph-name="icon_bell_32px" d="M237.301 853.152c153.822 148.366 408.037 141.281 552.43-15.397 60.138-65.255 93.283-149.015 93.283-235.723v-175.466l84.957-138.278c41.29-67.206 1.434-149.52-72.115-168.499h-767.642c-68.532 17.709-108.991 90.65-78.567 156.675l68.087 147.763v162.787c0 96.645 40.023 189.416 111.43 258.29l8.136 7.847zM357.811 67.277c10.336-68.822 47.731-131.277 154.186-131.277 106.458 0 143.853 62.454 154.189 131.277h-308.374z" />
<glyph unicode="&#xe911;" glyph-name="Icon_Bidder_24" d="M867.383 484.821l67.883-67.878-271.531-271.531-67.878 67.883 271.526 271.526zM822.131 530.078l-231.454 231.451-271.527-271.528 55.385-55.386-289.202-289.203 120.68-120.678 289.202 289.199 55.386-55.386 271.531 271.531zM273.896 535.255l271.529 271.529-67.883 67.883-271.53-271.529 67.884-67.883z" />
<glyph unicode="&#xe912;" glyph-name="icon_block_16px" d="M512 832c-211.622 0-384-172.378-384-384s172.378-384 384-384c211.622 0 384 172.378 384 384s-172.378 384-384 384zM512 755.2c170.118 0 307.2-137.084 307.2-307.2 0-71.158-24.218-136.339-64.576-188.326l-430.949 430.952c51.983 40.355 117.167 64.575 188.325 64.575zM269.375 636.325l430.952-430.949c-51.987-40.358-117.169-64.576-188.326-64.576-170.116 0-307.2 137.082-307.2 307.2 0 71.158 24.22 136.342 64.575 188.325z" />
<glyph unicode="&#xe913;" glyph-name="icon_block_24px" d="M512 832c-211.622 0-384-172.378-384-384s172.378-384 384-384c211.622 0 384 172.378 384 384s-172.378 384-384 384zM512 755.2c170.116 0 307.2-137.083 307.2-307.2 0-71.159-24.222-136.341-64.576-188.326l-430.949 430.951c51.984 40.355 117.166 64.575 188.325 64.575zM269.375 636.325l430.951-430.949c-51.985-40.354-117.167-64.576-188.326-64.576-170.117 0-307.2 137.084-307.2 307.2 0 71.159 24.22 136.341 64.575 188.325z" />
<glyph unicode="&#xe914;" glyph-name="icon_burger_24px" d="M302.545 564.364c0 9.64 7.815 17.455 17.455 17.455h384c9.64 0 17.455-7.815 17.455-17.455s-7.815-17.455-17.455-17.455h-384c-9.64 0-17.455 7.815-17.455 17.455zM302.545 448c0 9.64 7.815 17.455 17.455 17.455h384c9.64 0 17.455-7.815 17.455-17.455s-7.815-17.455-17.455-17.455h-384c-9.64 0-17.455 7.815-17.455 17.455zM320 349.091c-9.64 0-17.455-7.815-17.455-17.455s7.815-17.455 17.455-17.455h384c9.64 0 17.455 7.815 17.455 17.455s-7.815 17.455-17.455 17.455h-384z" />
<glyph unicode="&#xe915;" glyph-name="Icon_Calendar_24" d="M300.791 763.733v78.933h64v-78.933h294.4v78.933h64v-78.933h170.667v-170.667h-763.733v170.667h170.667zM776.525 68.267h-646.4v460.8h763.733v-460.8h-117.333z" />
<glyph unicode="&#xe916;" glyph-name="Icon_Campaign_16px" d="M868.73 784v-218.403c30.765-17.432 51.27-51.268 51.27-89.207s-20.506-70.751-51.27-88.182v-218.403l-102.534 29.734v554.725l102.534 29.736zM128 578.922l562.925 160.983v-526.011l-306.582 88.179v-183.539h-153.805v227.629l-99.461 28.71-3.076 204.049z" />
<glyph unicode="&#xe917;" glyph-name="Icon_Campaign_24" d="M829.094 746.667v-194.136c27.345-15.494 45.572-45.574 45.572-79.297 0-33.719-18.227-62.886-45.572-78.383v-194.133l-91.145 26.428v493.090l91.145 26.432zM170.667 564.375l500.382 143.096v-467.569l-272.522 78.383v-163.145h-136.716v202.338l-88.41 25.519-2.734 181.378z" />
<glyph unicode="&#xe918;" glyph-name="Icon_Campaign_32" d="M957.712 881.106v-282.379c39.773-22.538 66.288-66.288 66.288-115.341 0-49.050-26.515-91.475-66.288-114.013v-282.381l-132.573 38.448v717.219l132.573 38.447zM0 615.955l727.827 208.139v-680.097l-396.394 114.010v-237.306h-198.861v294.314l-128.596 37.12-3.977 263.821z" />
<glyph unicode="&#xe919;" glyph-name="Icon_Case_16px" d="M352 853.334h320v-202.666h224v-554.668h-768v554.668h224v202.666zM608 650.668v138.666h-192v-138.666h192z" />
<glyph unicode="&#xe91a;" glyph-name="Icon_Case_24" d="M352 853.333h320v-202.667h224v-554.667h-768v554.667h224v202.667zM608 650.667v138.667h-192v-138.667h192z" />
<glyph unicode="&#xe91b;" glyph-name="Icon_Case_32" d="M298.667 960h426.668v-274.028h298.666v-749.972h-1024v749.972h298.667v274.028zM640 685.972v187.493h-256v-187.493h256z" />
<glyph unicode="&#xe91c;" glyph-name="Icon_Channels_Rating_24" d="M683.904 874.667v-182.039c24.858-14.529 41.429-42.732 41.429-74.354s-16.572-58.97-41.429-73.499v-182.040l-139.904 39.407v432.573l139.904 39.952zM480 816.439v-396.274l-187.522 52.817v-152.981h-124.287v189.73l-80.372 23.93-2.486 170.074 394.667 112.704zM810.978 447.322h128.316v-426.359h-128.316v426.359zM554.978 319.701h-128.311v-298.748h128.311v298.748zM619.763 234.667h128.316v-213.73h-128.316v213.73z" />
<glyph unicode="&#xe91d;" glyph-name="icon_check_24px" d="M854.626 596.039l-427.959-427.962-257.294 257.297 45.255 45.252 212.039-212.036 382.707 382.704 45.252-45.255z" />
<glyph unicode="&#xe91e;" glyph-name="Icon_Check_Circle_24" d="M512 21.333c-235.642 0-426.667 191.027-426.667 426.667 0 235.642 191.025 426.667 426.667 426.667 235.639 0 426.667-191.025 426.667-426.667 0-235.639-191.027-426.667-426.667-426.667zM460.8 296.943l244.045 234.662-44.356 46.132-199.689-192.009-97.287 93.547-44.359-46.131 141.647-136.201z" />
<glyph unicode="&#xe91f;" glyph-name="Icon_Check_Mark_16" d="M817.946 604.118l-385.942-385.942-225.941 225.942 67.882 67.882 158.059-158.059 318.057 318.059 67.885-67.882z" />
<glyph unicode="&#xe920;" glyph-name="Icon_Check_Mark_L_16" d="M945.946 668.118l-577.942-577.942-289.941 289.942 67.882 67.882 222.059-222.061 510.057 510.061 67.885-67.882z" />
<glyph unicode="&#xe921;" glyph-name="Icon_Chevron_Down_16" d="M844.627 542.055l-332.61-332.609-332.608 332.609 67.882 67.882 264.726-264.725 264.725 264.725 67.885-67.882z" />
<glyph unicode="&#xe922;" glyph-name="Icon_Chevron_Down_24-1" d="M594.748 726.625l-278.627-278.629 278.627-278.626 45.257 45.257-233.374 233.37 233.374 233.374-45.257 45.255z" />
<glyph unicode="&#xe923;" glyph-name="Icon_Chevron_Down_24" d="M790.626 530.743l-278.63-278.626-278.626 278.626 45.255 45.257 233.371-233.374 233.374 233.374 45.257-45.257z" />
<glyph unicode="&#xe924;" glyph-name="Icon_Chevron_Left_16" d="M606.055 780.609l-332.607-332.608 332.607-332.609 67.884 67.885-264.727 264.724 264.727 264.726-67.884 67.882z" />
<glyph unicode="&#xe925;" glyph-name="Icon_Chevron_Right_16" d="M417.945 780.609l332.609-332.608-332.609-332.609-67.882 67.885 264.725 264.724-264.725 264.726 67.882 67.882z" />
<glyph unicode="&#xe926;" glyph-name="Icon_Chevron_Right_24" d="M429.261 726.63l278.626-278.626-278.626-278.63-45.256 45.257 233.373 233.374-233.373 233.371 45.256 45.255z" />
<glyph unicode="&#xe927;" glyph-name="Icon_Chevron_Up_16" d="M179.375 353.945l332.608 332.607 332.606-332.607-67.878-67.884-264.728 264.727-264.726-264.727-67.882 67.884z" />
<glyph unicode="&#xe928;" glyph-name="Icon_Chevron_Up_24" d="M233.375 365.257l278.629 278.626 278.626-278.626-45.257-45.257-233.37 233.373-233.374-233.373-45.255 45.257z" />
<glyph unicode="&#xe929;" glyph-name="Icon_Click_24" d="M437.333 693.333v202.667h64v-202.667h-64zM415.687 544.314l181.019-543.059 120.678 241.361 241.361 120.678-543.059 181.020zM733.321 799.909l-143.305-143.307 45.252-45.255 143.309 143.307-45.257 45.255zM303.4 369.988l-143.307-143.309 45.255-45.252 143.307 143.305-45.255 45.257zM303.399 611.347l-143.307 143.307 45.255 45.255 143.307-143.307-45.255-45.255zM266.665 522.667h-202.667v-64h202.667v64z" />
<glyph unicode="&#xe92a;" glyph-name="Icon_Clients_16px" d="M725.357 595.46c77.101 0 139.603 62.502 139.603 139.603s-62.502 139.603-139.603 139.603c-77.101 0-139.605-62.502-139.605-139.603s62.504-139.603 139.605-139.603zM958.003 177.581v324.812h-465.341v-96.958h96.902v-227.854h368.439zM298.739 440.328c77.1 0 139.603 62.502 139.603 139.603s-62.502 139.603-139.603 139.603c-77.1 0-139.603-62.502-139.603-139.603s62.502-139.603 139.603-139.603zM531.389 347.26h-465.342v-324.808h465.342v324.808z" />
<glyph unicode="&#xe92b;" glyph-name="Icon_Clients_24" d="M725.359 595.462c77.103 0 139.605 62.502 139.605 139.602s-62.502 139.603-139.605 139.603c-77.099 0-139.601-62.502-139.601-139.603s62.502-139.602 139.601-139.602zM958.012 177.583v324.809h-465.344v-96.956h96.9v-227.853h368.444zM298.744 440.329c77.1 0 139.601 62.502 139.601 139.602s-62.5 139.603-139.601 139.603c-77.1 0-139.603-62.502-139.603-139.603s62.502-139.602 139.603-139.602zM531.396 347.26h-465.344v-324.809h465.344v324.809z" />
<glyph unicode="&#xe92c;" glyph-name="Icon_Clients_32" d="M756.909 613.482c88.515 0 160.269 70.408 160.269 157.259s-71.754 157.259-160.269 157.259c-88.515 0-160.269-70.407-160.269-157.259s71.754-157.259 160.269-157.259zM1024 142.755v365.888h-534.23v-109.222h111.248v-256.666h422.982zM267.139 438.73c88.513 0 160.269 70.406 160.269 157.258s-71.757 157.259-160.269 157.259c-88.514 0-160.269-70.407-160.269-157.259s71.755-157.258 160.269-157.258zM534.23 333.888h-534.23v-365.888h534.23v365.888z" />
<glyph unicode="&#xe92d;" glyph-name="Icon_Clock_24" d="M512 21.333c-235.642 0-426.667 191.027-426.667 426.667 0 235.642 191.025 426.667 426.667 426.667 235.639 0 426.667-191.025 426.667-426.667 0-235.639-191.027-426.667-426.667-426.667zM544 461.257v264.077h-64v-290.59l116.041-116.036 45.252 45.252-97.293 97.297z" />
<glyph unicode="&#xe92e;" glyph-name="icon_create_ad_24px" d="M778.667 832v-138.667h-138.667v-64h138.667v-138.667h64v138.667h138.667v64h-138.667v138.667h-64zM342.977 377.481h56.662l-28.367 84.075-28.295-84.075zM542.985 331.362h22.579c12.083 0 22.272 2.645 30.566 7.936 8.294 5.393 14.541 13.227 18.739 23.509 4.301 10.283 6.451 22.707 6.451 37.282v10.633c0 11.179-1.229 21.013-3.686 29.495-2.355 8.486-5.888 15.625-10.598 21.414s-10.496 10.129-17.357 13.026c-6.861 2.995-14.746 4.493-23.654 4.493h-23.040v-147.789zM576 704h-533.333v-597.333h821.333v320h-149.333v138.667h-138.667v138.667zM392.616 514.338l83.557-218.014h-49.152l-15.509 45.969h-80.377l-15.471-45.969h-48.997l83.095 218.014h42.854zM565.564 296.324c15.155 0 28.979 2.449 41.472 7.339 12.595 4.992 23.394 12.028 32.405 21.111 9.114 9.186 16.128 20.164 21.043 32.943 5.018 12.774 7.526 26.901 7.526 42.372v10.334c0 15.569-2.509 29.696-7.526 42.372-4.915 12.779-11.93 23.757-21.043 32.943-9.114 9.182-19.913 16.222-32.405 21.111-12.39 4.992-26.061 7.488-41.011 7.488h-69.12v-218.014h68.659z" />
<glyph unicode="&#xe92f;" glyph-name="icon_cross_16px" d="M771.872 640.010l-192.009-192.015 192.022-192.020-67.885-67.878-192.019 192.017-191.995-191.997-67.882 67.885 191.995 191.995-191.991 191.997 67.882 67.882 191.991-191.997 192.013 192.015 67.878-67.882z" />
<glyph unicode="&#xe930;" glyph-name="Icon_Cross_24" d="M356.627 654.664l155.377-155.374 155.375 155.374 51.285-51.289-155.375-155.375 155.375-155.375-51.285-51.29-155.375 155.375-155.377-155.375-51.289 51.29 155.376 155.375-155.376 155.375 51.289 51.289z" />
<glyph unicode="&#xe931;" glyph-name="Icon_Cross_32" d="M1024 448c0 282.77-229.229 512-512 512s-512-229.23-512-512c0-282.771 229.23-512 512-512s512 229.229 512 512zM976 448c0-256.259-207.741-464-464-464s-464 207.741-464 464c0 256.26 207.74 464 464 464s464-207.74 464-464zM512-16c-256.26 0-464 207.741-464 464s207.74 464 464 464c256.259 0 464-207.74 464-464s-207.741-464-464-464zM400.97 592.97c-9.373 9.373-24.566 9.373-33.939 0s-9.373-24.566 0-33.939l111.027-111.030-111.027-111.030c-9.373-9.373-9.373-24.566 0-33.939s24.566-9.373 33.939 0l111.030 111.027 111.030-111.027c9.373-9.373 24.566-9.373 33.939 0s9.373 24.566 0 33.939l-111.027 111.030 111.027 111.030c9.373 9.373 9.373 24.566 0 33.939s-24.566 9.373-33.939 0l-111.030-111.027-111.030 111.027z" />
<glyph unicode="&#xe932;" glyph-name="icon_csv_24px" d="M149.333 938.667h437.333v-288h288v-693.333h-725.333v981.333zM425.25 102.541h-34.375c-0.75-7.667-2.542-14.084-5.375-19.251-2.75-5.163-6.792-9.079-12.125-11.746-5.25-2.667-12.084-4.002-20.5-4.002-6.917 0-12.875 1.335-17.875 4.002s-9.083 6.541-12.25 11.622c-3.167 5.086-5.5 11.294-7 18.624-1.5 7.334-2.25 15.629-2.25 24.879v14.123c0 9.668 0.833 18.167 2.5 25.502 1.667 7.415 4.167 13.581 7.5 18.5 3.334 4.996 7.5 8.747 12.5 11.247 5.083 2.5 10.959 3.75 17.625 3.75 8.583 0 15.458-1.417 20.625-4.25 5.25-2.748 9.167-6.793 11.75-12.126 2.667-5.333 4.333-11.831 5-19.499h34.375c-1.167 12.335-4.584 23.249-10.25 32.751-5.667 9.498-13.625 16.956-23.875 22.374-10.25 5.5-22.792 8.247-37.625 8.247-11.417 0-21.75-2.039-31-6.123-9.167-4.083-17.041-9.916-23.625-17.502-6.5-7.497-11.5-16.58-15-27.247s-5.25-22.626-5.25-35.878v-13.871c0-13.252 1.708-25.212 5.125-35.878 3.417-10.581 8.333-19.665 14.75-27.247 6.5-7.501 14.292-13.295 23.375-17.378 9.167-3.998 19.458-5.999 30.875-5.999 14.833 0 27.458 2.667 37.875 8s18.542 12.668 24.375 21.999c5.833 9.417 9.208 20.211 10.125 32.375zM547.123 89.916c0 3.503-0.542 6.626-1.621 9.374-1.003 2.837-2.876 5.376-5.628 7.629-2.667 2.33-6.455 4.582-11.375 6.75-4.834 2.249-11.081 4.582-18.748 6.997-8.503 2.667-16.418 5.666-23.753 9.003-7.33 3.332-13.79 7.206-19.375 11.622-5.5 4.416-9.792 9.502-12.873 15.249-3.085 5.837-4.625 12.587-4.625 20.254 0 7.497 1.583 14.332 4.749 20.497 3.251 6.17 7.834 11.46 13.751 15.876 5.914 4.501 12.873 7.957 20.873 10.377 8.085 2.415 17.003 3.622 26.752 3.622 13.5 0 25.165-2.458 34.999-7.373 9.916-4.919 17.583-11.584 22.997-20.002 5.419-8.414 8.128-17.873 8.128-28.373h-34.253c0 5.666-1.207 10.667-3.622 14.997-2.334 4.335-5.918 7.753-10.752 10.253-4.749 2.5-10.748 3.75-17.997 3.75-7.002 0-12.834-1.041-17.502-3.127-4.582-2.082-8.043-4.915-10.377-8.499-2.249-3.584-3.375-7.582-3.375-11.998 0-3.337 0.794-6.336 2.377-9.003 1.583-2.581 3.959-5.039 7.125-7.373 3.166-2.253 7.083-4.378 11.75-6.374 4.749-1.92 10.249-3.836 16.499-5.751 10.001-2.999 18.748-6.336 26.249-10.001 7.586-3.665 13.875-7.834 18.876-12.501 5.086-4.663 8.875-9.916 11.375-15.748 2.586-5.833 3.874-12.459 3.874-19.874 0-7.834-1.54-14.835-4.625-21.001-3.081-6.165-7.497-11.418-13.248-15.748-5.751-4.335-12.668-7.629-20.749-9.877-8-2.249-16.96-3.375-26.876-3.375-8.836 0-17.583 1.169-26.253 3.499-8.58 2.419-16.371 6.003-23.373 10.752-7.002 4.834-12.582 10.914-16.751 18.249-4.164 7.42-6.251 16.085-6.251 26.001h34.5c0-5.751 0.917-10.667 2.752-14.75 1.916-4.002 4.582-7.292 8-9.873 3.499-2.5 7.582-4.335 12.25-5.504 4.668-1.165 9.707-1.749 15.125-1.749 6.997 0 12.749 0.96 17.25 2.876 4.582 2.001 8 4.749 10.249 8.252 2.334 3.499 3.499 7.501 3.499 11.998zM691.375 42.667h-35.123l-64 181.999h37.999l43.503-141.116 43.746 141.116h38.127l-64.252-181.999zM650.667 906.667l192-192h-192v192z" />
<glyph unicode="&#xe933;" glyph-name="Icon_Cursor_24" d="M213.927 746.071l229.571-688.714 153.050 306.095 306.095 153.045-688.716 229.574z" />
<glyph unicode="&#xe934;" glyph-name="Icon_Dashboard_24px" d="M480 64v352h-352v-352h352zM544 64h352v352h-352v-352zM896 480v352h-352v-352h352zM480 832h-352v-352h352v352z" />
<glyph unicode="&#xe935;" glyph-name="Icon_Deleted_24" d="M512 213.333c129.604 0 234.667 105.062 234.667 234.667 0 53.265-17.745 102.382-47.646 141.766l-328.787-328.787c39.384-29.901 88.501-47.646 141.766-47.646zM653.764 635.021l-328.785-328.785c-29.901 39.381-47.646 88.499-47.646 141.764 0 129.603 105.064 234.667 234.667 234.667 53.265 0 102.383-17.745 141.764-47.646zM938.667 448c0 235.642-191.027 426.667-426.667 426.667-235.642 0-426.667-191.025-426.667-426.667 0-235.639 191.025-426.667 426.667-426.667 235.639 0 426.667 191.027 426.667 426.667zM810.667 448c0-164.949-133.717-298.667-298.667-298.667s-298.667 133.717-298.667 298.667c0 164.949 133.718 298.667 298.667 298.667s298.667-133.718 298.667-298.667z" />
<glyph unicode="&#xe936;" glyph-name="icon_delite_16px" d="M448 832c-16.75 0-33.875-5.875-46-18s-18-29.25-18-46v-32h-192v-64h32v-512c0-52.627 43.375-96 96-96h384c52.627 0 96 43.373 96 96v512h32v64h-192v32c0 16.75-5.875 33.875-18 46s-29.25 18-46 18h-128zM448 768h128v-32h-128v32zM288 672h448v-512c0-17.747-14.253-32-32-32h-384c-17.75 0-32 14.253-32 32v512zM352 576v-352h64v352h-64zM480 576v-352h64v352h-64zM608 576v-352h64v352h-64z" />
<glyph unicode="&#xe937;" glyph-name="icon_doc_24px" d="M149.333 960h437.333v-288h288v-693.333h-725.333v981.333zM650.667 928l192-192h-192v192z" />
<glyph unicode="&#xe938;" glyph-name="Icon_Documents_24" d="M192 832v-629.333h64v565.333h437.333v64h-501.333zM832 704h-512v-640h512v640z" />
<glyph unicode="&#xe939;" glyph-name="Icon_Dollar_24" d="M551.036 746.667v-93.324h-54.263v93.324h54.263zM544.384 233.545v-84.211h-53.914v84.211h53.914zM589.892 335.979c0 11.942-2.564 22.31-7.701 31.108-4.898 8.798-13.184 16.657-24.853 23.569-11.439 6.912-26.842 13.508-46.212 19.793-30.11 9.847-56.482 20.634-79.121 32.367-22.638 11.938-40.259 26.709-52.862 44.305-12.369 17.596-18.554 39.799-18.554 66.614 0 25.766 6.652 48.076 19.955 66.929 13.537 19.063 32.325 33.726 56.364 43.991 24.038 10.474 51.93 15.711 83.669 15.711 24.742 0 46.912-3.351 66.517-10.055 19.84-6.494 36.757-16.026 50.761-28.594 14.238-12.569 25.092-28.070 32.559-46.505 7.701-18.225 11.554-39.068 11.554-62.532h-92.425c0 12.99-1.634 24.511-4.898 34.566-3.268 10.055-7.936 18.539-14.003 25.452-6.071 7.122-13.423 12.464-22.059 16.025-8.401 3.561-17.971 5.342-28.706 5.342-15.403 0-28.122-2.618-38.157-7.855-9.805-5.237-17.041-12.359-21.709-21.367-4.433-9.008-6.652-19.377-6.652-31.108 0-11.312 2.334-21.264 7.002-29.853 4.902-8.38 13.073-16.026 24.508-22.938 11.669-6.912 27.657-13.931 47.962-21.052 30.34-10.057 56.713-21.158 79.121-33.306 22.404-11.942 39.791-26.607 52.16-43.994s18.556-39.381 18.556-65.984c0-27.234-7.002-50.278-21.005-69.129-13.769-18.854-33.143-33.203-58.116-43.051-24.973-9.843-54.029-14.767-87.168-14.767-21.239 0-42.244 2.513-63.019 7.539-20.77 5.030-39.674 13.201-56.712 24.512-16.804 11.52-30.224 26.709-40.26 45.559-10.036 19.063-15.054 42.419-15.054 70.071h92.774c0-15.919 2.334-29.116 7.002-39.59s10.97-18.854 18.901-25.139c7.936-6.071 16.806-10.368 26.607-12.881 9.805-2.513 19.725-3.772 29.76-3.772 16.337 0 29.871 2.513 40.61 7.543 10.97 5.026 19.136 12.045 24.503 21.052 5.602 9.216 8.401 19.691 8.401 31.42z" />
<glyph unicode="&#xe93a;" glyph-name="Icon_Dots_16" d="M256 448c0-53.020-42.98-96-96-96s-96 42.98-96 96c0 53.020 42.98 96 96 96s96-42.98 96-96zM608 448c0-53.020-42.98-96-96-96s-96 42.98-96 96c0 53.020 42.98 96 96 96s96-42.98 96-96zM864 352c53.018 0 96 42.98 96 96s-42.982 96-96 96c-53.018 0-96-42.98-96-96s42.982-96 96-96z" />
<glyph unicode="&#xe93b;" glyph-name="Icon_Download_24" d="M534.447 254.528l213.333 210.667-44.894 45.611-158.886-157.069v520.93h-64v-520.93l-158.885 157.069-44.897-45.611 213.335-210.667 22.447-22.447 22.447 22.447zM160 234.667h-64v-202.667h832v202.667h-64v-138.667h-704v138.667z" />
<glyph unicode="&#xe93c;" glyph-name="icon_edit_16px" d="M795.13 896c-42.33 0-84.653-16.047-116.73-48.139l-522.068-522.020c-9.906-9.905-17.16-22.225-21.006-35.748l-69.974-245.024c-1.726-6.061-1.8-12.48-0.216-18.579s4.77-11.667 9.228-16.128c4.457-4.454 10.025-7.642 16.126-9.229 6.102-1.581 12.516-1.504 18.579 0.218l245.117 70.022c13.433 3.859 25.721 11.027 35.655 20.96l522.019 522.065c64.179 64.18 64.179 169.283 0 233.463-32.077 32.092-74.4 48.139-116.73 48.139zM795.13 825.657c24.077 0 48.122-9.277 66.656-27.823h0.045c37.146-37.145 37.146-96.263 0-133.407l-45.741-45.744-133.408 133.407 45.747 45.744c18.534 18.547 42.624 27.823 66.701 27.823zM632.655 702.062l133.406-133.407-426.294-426.293c-1.383-1.376-3.134-2.426-5.114-2.995l-183.804-52.518 52.515 183.898c0.541 1.901 1.532 3.603 2.995 5.069l426.295 426.248z" />
<glyph unicode="&#xe93d;" glyph-name="icon_edit_24px" d="M567.386 684.403l-445.28-445.278-14.811-195.831 195.83 14.81 445.279 445.282-181.018 181.018zM612.638 729.658l181.022-181.019 128.222 128.222-181.018 181.019-128.226-128.222z" />
<glyph unicode="&#xe93e;" glyph-name="Icon_Enter_24" d="M736 352v394.667h64v-458.667h-552.079l116.039-116.041-45.255-45.252-193.294 193.293 193.294 193.293 45.255-45.252-116.039-116.041h488.079z" />
<glyph unicode="&#xe93f;" glyph-name="Icon_Error_16" d="M511.995 21.331c235.64 0 426.668 191.027 426.668 426.666 0 235.642-191.027 426.667-426.668 426.667-235.642 0-426.667-191.025-426.667-426.667 0-235.639 191.025-426.666 426.667-426.666zM543.995 661.331v-298.666h-64v298.666h64zM543.995 298.662v-64h-64v64h64z" />
<glyph unicode="&#xe940;" glyph-name="Icon_Error_24" d="M512 21.333c235.639 0 426.667 191.027 426.667 426.667 0 235.642-191.027 426.667-426.667 426.667-235.642 0-426.667-191.025-426.667-426.667 0-235.639 191.025-426.667 426.667-426.667zM544 661.333v-298.667h-64v298.667h64zM544 298.667v-64h-64v64h64z" />
<glyph unicode="&#xe941;" glyph-name="Icon_Euro_24" d="M604.373 265.681c12.134 0 23.808 0.798 35.025 2.398 11.217 1.83 21.978 4.57 32.282 8.226l10.987-74.022c-13.508-3.2-27.584-5.713-42.236-7.539-14.652-1.83-29.419-2.743-44.301-2.743-28.617 0-54.827 3.998-78.635 11.994s-44.527 20.105-62.157 36.326c-17.395 16.222-30.904 36.442-40.519 60.659s-14.422 52.322-14.422 84.305v117.205c0 33.357 4.807 62.601 14.422 87.732s23.35 46.151 41.206 63.057c18.086 16.907 39.377 29.587 63.872 38.040 24.725 8.454 51.968 12.68 81.728 12.68 13.734 0 27.243-1.028 40.521-3.084 13.508-1.828 27.012-4.341 40.521-7.54l-10.987-74.367c-9.617 3.199-20.147 5.826-31.595 7.882s-22.891 3.084-34.338 3.084c-17.169 0-32.623-2.513-46.357-7.54-13.739-4.798-25.412-12.337-35.029-22.618-9.613-10.053-16.939-23.075-21.978-39.068-4.804-15.993-7.211-35.186-7.211-57.573v-117.892c0-21.931 2.522-40.55 7.556-55.859 5.265-15.078 12.706-27.418 22.319-37.013 9.617-9.365 21.175-16.222 34.684-20.561 13.508-4.113 28.386-6.17 44.642-6.17zM613.645 519.966v-48.661h-272.311v48.661h272.311zM613.645 427.093v-49.007h-272.311v49.007h272.311z" />
<glyph unicode="&#xe942;" glyph-name="icon_exel_16px" d="M524.276 831.958c-5.263 0.181-10.634-0.215-16.026-1.24l-307.142-58.471c-42.328-8.070-73.105-43.8-73.105-84.888v-56.593c-0.057-3.824 0.685-7.621 2.183-11.17s3.722-6.778 6.543-9.502c2.82-2.723 6.182-4.886 9.888-6.362s7.684-2.236 11.702-2.236c4.017 0 7.995 0.76 11.701 2.236s7.068 3.639 9.888 6.362c2.821 2.724 5.045 5.953 6.543 9.502s2.241 7.346 2.184 11.17v56.593c0 13.937 10.012 25.553 24.394 28.296l307.103 58.471c6.856 1.303 12.079-2.76 12.079-9.432v-32.993c-0.534-3.098-0.534-6.259 0-9.357v-567.834c-0.534-3.098-0.534-6.259 0-9.357v-13.869c0-6.675-5.229-10.739-12.079-9.434v0.038l-307.142 58.47c-14.367 2.733-24.355 14.323-24.355 28.262v268.227c0.057 3.824-0.685 7.621-2.184 11.17s-3.722 6.779-6.543 9.502c-2.82 2.724-6.182 4.886-9.888 6.362s-7.684 2.237-11.701 2.237c-4.018 0-7.996-0.76-11.702-2.237s-7.068-3.638-9.888-6.362c-2.82-2.723-5.044-5.953-6.543-9.502s-2.24-7.346-2.183-11.17v-268.227c0-41.082 30.781-76.832 73.105-84.89l307.142-58.47c39.295-7.482 75.63 19.27 82.065 55.648h194.523c61.030 0 111.162 47.725 111.162 105.824v38.477c0.051 3.827-0.691 7.622-2.189 11.168-1.498 3.552-3.718 6.784-6.541 9.504-2.822 2.726-6.182 4.89-9.888 6.362-3.706 1.478-7.686 2.24-11.699 2.24-4.019 0-7.994-0.762-11.706-2.24-3.706-1.472-7.066-3.635-9.888-6.362-2.816-2.72-5.043-5.952-6.541-9.504-1.498-3.546-2.24-7.341-2.182-11.168v-38.477c0-26.906-22.266-48.102-50.528-48.102h-191.997v519.475h191.997c28.262 0 50.528-21.198 50.528-48.099v-230.878c-0.058-3.824 0.685-7.62 2.182-11.17s3.725-6.778 6.541-9.502c2.822-2.723 6.182-4.886 9.888-6.362 3.712-1.476 7.686-2.236 11.706-2.236 4.013 0 7.994 0.76 11.699 2.236s7.066 3.639 9.888 6.362c2.822 2.724 5.043 5.953 6.541 9.502s2.24 7.346 2.189 11.17v230.878c0 58.1-50.131 105.819-111.162 105.819h-191.997v8.868c0 36.653-31.729 65.997-68.565 67.265zM663.578 621.146c-4.019 0.054-8.006-0.652-11.731-2.078-3.731-1.426-7.123-3.544-9.984-6.228s-5.132-5.885-6.683-9.414c-1.551-3.528-2.349-7.315-2.349-11.139s0.798-7.611 2.349-11.139c1.551-3.528 3.822-6.728 6.683-9.413s6.253-4.803 9.984-6.228c3.725-1.427 7.712-2.133 11.731-2.079h80.845c4.013-0.054 8 0.652 11.731 2.079 3.725 1.426 7.117 3.543 9.978 6.228 2.867 2.685 5.133 5.885 6.688 9.413 1.549 3.528 2.349 7.315 2.349 11.139s-0.8 7.611-2.349 11.139c-1.555 3.528-3.821 6.728-6.688 9.414-2.861 2.685-6.253 4.803-9.978 6.228-3.731 1.426-7.718 2.132-11.731 2.078h-80.845zM289.647 579.623c-5.837 0.148-11.802-1.313-17.092-4.509-14.106-8.561-18.25-26.383-9.276-39.832l60.394-90.337-60.394-90.337c-8.973-13.448-4.83-31.27 9.276-39.83 5.053-3.040 10.685-4.512 16.263-4.512 10.004 0 19.838 4.704 25.619 13.34l45.158 67.565 45.157-67.527c5.8-8.636 15.614-13.378 25.619-13.378 5.578 0 11.171 1.434 16.223 4.512 14.107 8.559 18.289 26.419 9.316 39.868l-60.355 90.3 60.355 90.299c8.973 13.449 4.791 31.309-9.316 39.87-14.086 8.543-32.828 4.6-41.842-8.868l-45.157-67.527-45.158 67.565c-5.621 8.417-15.060 13.093-24.789 13.34zM663.578 467.228c-4.019 0.054-8.006-0.652-11.731-2.079-3.731-1.426-7.123-3.543-9.984-6.228s-5.132-5.885-6.683-9.413c-1.551-3.528-2.349-7.315-2.349-11.139s0.798-7.612 2.349-11.14c1.551-3.528 3.822-6.728 6.683-9.413s6.253-4.803 9.984-6.228c3.725-1.426 7.712-2.132 11.731-2.079h80.845c4.013-0.054 8 0.653 11.731 2.079 3.725 1.426 7.117 3.543 9.978 6.228 2.867 2.685 5.133 5.885 6.688 9.413 1.549 3.528 2.349 7.315 2.349 11.14s-0.8 7.611-2.349 11.139c-1.555 3.528-3.821 6.728-6.688 9.413-2.861 2.685-6.253 4.803-9.978 6.228-3.731 1.427-7.718 2.132-11.731 2.079h-80.845zM663.578 313.312c-4.019 0.051-8.006-0.653-11.731-2.080-3.731-1.427-7.123-3.546-9.984-6.227-2.861-2.688-5.132-5.888-6.683-9.414s-2.349-7.315-2.349-11.142c0-3.821 0.798-7.61 2.349-11.136 1.551-3.533 3.822-6.726 6.683-9.414s6.253-4.8 9.984-6.227c3.725-1.427 7.712-2.131 11.731-2.080h80.845c4.013-0.051 8 0.653 11.731 2.080 3.725 1.427 7.117 3.539 9.978 6.227 2.867 2.688 5.133 5.882 6.688 9.414 1.549 3.526 2.349 7.315 2.349 11.136 0 3.827-0.8 7.616-2.349 11.142-1.555 3.526-3.821 6.726-6.688 9.414-2.861 2.682-6.253 4.8-9.978 6.227-3.731 1.427-7.718 2.131-11.731 2.080h-80.845z" />
<glyph unicode="&#xe943;" glyph-name="icon_exel_24px" d="M149.333 960v-981.333h725.333v693.333h-288v288h-437.333zM615.748 111.249c0 3.503-0.542 6.626-1.621 9.374-1.003 2.837-2.876 5.376-5.628 7.629-2.667 2.33-6.455 4.582-11.375 6.75-4.834 2.249-11.081 4.582-18.748 6.997-8.503 2.667-16.418 5.666-23.753 9.003-7.334 3.332-13.79 7.206-19.375 11.622-5.5 4.416-9.792 9.502-12.873 15.249-3.085 5.837-4.625 12.587-4.625 20.254 0 7.497 1.583 14.332 4.749 20.497 3.251 6.17 7.834 11.46 13.751 15.876 5.914 4.501 12.873 7.957 20.873 10.377 8.085 2.415 17.003 3.622 26.752 3.622 13.5 0 25.165-2.458 34.999-7.373 9.916-4.919 17.583-11.584 22.997-20.002 5.419-8.414 8.128-17.873 8.128-28.373h-34.253c0 5.666-1.207 10.667-3.622 14.997-2.334 4.335-5.918 7.753-10.752 10.253-4.749 2.5-10.748 3.75-17.997 3.75-7.002 0-12.834-1.041-17.502-3.127-4.582-2.082-8.043-4.915-10.377-8.499-2.249-3.584-3.375-7.582-3.375-11.998 0-3.337 0.794-6.336 2.377-9.003 1.583-2.581 3.959-5.039 7.125-7.373 3.166-2.253 7.083-4.378 11.75-6.374 4.749-1.92 10.249-3.836 16.499-5.751 10.001-2.999 18.748-6.336 26.249-10.001 7.586-3.665 13.875-7.834 18.876-12.501 5.086-4.663 8.875-9.916 11.375-15.748 2.586-5.833 3.874-12.459 3.874-19.874 0-7.834-1.54-14.835-4.625-21.001-3.081-6.165-7.497-11.418-13.248-15.748-5.751-4.335-12.668-7.629-20.749-9.877-8-2.249-16.96-3.375-26.876-3.375-8.836 0-17.583 1.169-26.253 3.499-8.58 2.419-16.371 6.003-23.373 10.752-7.002 4.834-12.582 10.914-16.751 18.249-4.164 7.42-6.251 16.085-6.251 26.001h34.5c0-5.751 0.917-10.667 2.752-14.75 1.916-4.002 4.582-7.292 8-9.873 3.499-2.5 7.582-4.335 12.25-5.504 4.668-1.165 9.707-1.749 15.125-1.749 6.997 0 12.749 0.96 17.25 2.876 4.582 2.001 8 4.749 10.249 8.252 2.334 3.499 3.499 7.501 3.499 11.998zM704.124 245.999l36.378-64.875 36.497 64.875h39.501l-53.999-90.249 55.373-91.75h-39.872l-37.5 66.125-37.376-66.125h-40l55.373 91.75-53.999 90.249h39.625zM497.502 90.999v-26.999h-115.502v181.999h34.375v-154.999h81.127zM247.125 245.999l36.375-64.875 36.5 64.875h39.5l-54-90.249 55.375-91.75h-39.875l-37.5 66.125-37.375-66.125h-40l55.375 91.75-54 90.249h39.625zM650.667 928l192-192h-192v192z" />
<glyph unicode="&#xe944;" glyph-name="Icon_Eye_24" d="M936.213 459.52c-1.242 2.807-31.36 69.619-98.308 136.57-89.212 89.209-201.886 136.356-325.905 136.356-124.017 0-236.693-47.147-325.903-136.356-66.951-66.95-97.209-133.869-98.311-136.57-1.617-3.639-2.453-7.573-2.453-11.554s0.836-7.919 2.453-11.558c1.245-2.807 31.36-69.581 98.311-136.533 89.209-89.173 201.885-136.32 325.903-136.32s236.693 47.147 325.905 136.32c66.948 66.953 97.067 133.726 98.308 136.533 1.617 3.639 2.453 7.578 2.453 11.558s-0.836 7.915-2.453 11.554zM512 305.779c-28.13 0-55.625 8.341-79.014 23.966-23.388 15.629-41.617 37.841-52.382 63.829s-13.581 54.583-8.093 82.172c5.488 27.588 19.033 52.932 38.923 72.821 19.892 19.89 45.232 33.435 72.82 38.923s56.183 2.671 82.172-8.093c25.988-10.764 48.201-28.993 63.829-52.382s23.966-50.884 23.966-79.014c0-37.717-14.98-73.894-41.655-100.565-26.671-26.671-62.844-41.655-100.565-41.655z" />
<glyph unicode="&#xe945;" glyph-name="Icon_Eye_Closed_24" d="M512 350.14c-145.503 0-247.683 72.439-314.586 146.761-36.558 40.895-67.225 86.694-91.113 136.073-1.75 3.74-3.427 7.514-5.030 11.319l-0.252 0.44-29.176-11.633-29.176-11.696v-0.125l0.189-0.252c0.524-1.329 1.069-2.65 1.635-3.961l4.905-10.878c26.504-54.916 60.581-105.843 101.236-151.287 74.638-82.876 192.474-167.637 361.369-167.637v62.878zM952.158 633.099c-9.741 3.863-19.465 7.762-29.175 11.696l-0.188-0.503-0.943-2.201-4.151-9.118c-23.889-49.377-54.554-95.177-91.11-136.073-66.842-74.321-169.084-146.761-314.59-146.761v-62.878c168.896 0 286.797 84.762 361.37 167.637 40.657 45.444 74.735 96.37 101.235 151.287 2.287 4.9 4.467 9.848 6.541 14.839l0.128 0.252v0.063l-29.116 11.759zM543.441 161.502v157.197h-62.882v-157.197h62.882zM125.542 265.003l125.76 125.756-44.519 44.523-125.76-125.76 44.519-44.518zM772.702 390.758l125.756-125.756 44.523 44.518-125.76 125.76-44.518-44.523z" />
<glyph unicode="&#xe946;" glyph-name="icon_filter_16px" d="M730.534 640c3.539 10.009 5.466 20.78 5.466 32 0 10.769-1.773 21.125-5.043 30.79-0.141 0.404-0.275 0.808-0.422 1.21-13.178 37.286-48.736 64-90.534 64s-77.359-26.714-90.538-64c-3.537-10.009-5.462-20.78-5.462-32 0-10.769 1.773-21.125 5.044-30.79 0.137-0.404 0.276-0.808 0.419-1.21 13.179-37.286 48.739-64 90.538-64s77.357 26.714 90.534 64zM796.8 640c-14.822-73.032-79.392-128-156.8-128s-141.975 54.968-156.799 128h-419.201v64h419.201c14.824 73.032 79.393 128 156.799 128 77.408 0 141.978-54.968 156.8-128h163.2v-64h-163.2zM293.462 256c-3.537-10.010-5.462-20.781-5.462-32 0-10.771 1.773-21.126 5.044-30.79 0.137-0.403 0.276-0.806 0.419-1.21 13.179-37.286 48.739-64 90.538-64s77.359 26.714 90.538 64c3.537 10.010 5.462 20.781 5.462 32 0 10.771-1.773 21.126-5.044 30.79-0.137 0.403-0.276 0.806-0.419 1.21-13.179 37.286-48.739 64-90.538 64s-77.359-26.714-90.538-64zM227.201 256c14.824 73.032 79.393 128 156.799 128s141.975-54.968 156.799-128h419.201v-64h-419.201c-14.824-73.030-79.393-128-156.799-128s-141.975 54.97-156.799 128h-163.201v64h163.201z" />
<glyph unicode="&#xe947;" glyph-name="icon_Filter_24px" d="M426.667 426.667l-298.667 405.333h768l-298.667-405.333v-277.333l-170.667-85.333v362.667z" />
<glyph unicode="&#xe948;" glyph-name="Icon_Forecast_24" d="M481.83 570.819l-161.83 282.973-161.831-282.973h129.831v-506.819h64v506.819h129.83zM542.17 325.18l161.83-282.97 161.83 282.97h-129.83v506.82h-64v-506.82h-129.83z" />
<glyph unicode="&#xe949;" glyph-name="Icon_House_24" d="M170.667 562.59l341.333 269.41 341.333-269.41v-455.924h-243.81v248.687h-195.047v-248.687h-243.81v455.924z" />
<glyph unicode="&#xe94a;" glyph-name="icon_info_16px" d="M512 0c247.424 0 448 200.576 448 448s-200.576 448-448 448c-247.423 0-448-200.577-448-448s200.577-448 448-448zM464 608v96h96v-96h-96zM464 192v320h96v-320h-96z" />
<glyph unicode="&#xe94b;" glyph-name="icon_info_24px" d="M874.667 448c0 200.295-162.372 362.667-362.667 362.667s-362.667-162.371-362.667-362.667c0-200.294 162.371-362.667 362.667-362.667s362.667 162.372 362.667 362.667zM938.667 448c0-235.639-191.027-426.667-426.667-426.667-235.642 0-426.667 191.027-426.667 426.667 0 235.642 191.025 426.667 426.667 426.667 235.639 0 426.667-191.025 426.667-426.667zM554.667 597.333c0-23.564-19.102-42.667-42.667-42.667s-42.667 19.103-42.667 42.667c0 23.564 19.102 42.667 42.667 42.667s42.667-19.103 42.667-42.667zM554.667 462.669v-242.671c0-15.462-19.102-27.998-42.667-27.998s-42.667 12.535-42.667 27.998v242.671c0 48.572 85.333 48.572 85.333 0z" />
<glyph unicode="&#xe94c;" glyph-name="Icon_Loader_16" d="M512 816c203.238 0 368-164.759 368-368 0-203.238-164.762-368-368-368-203.241 0-368 164.762-368 368h96c0-150.221 121.779-272 272-272s272 121.779 272 272c0 150.221-121.779 272-272 272v96z" />
<glyph unicode="&#xe94d;" glyph-name="Icon_Loader_24" d="M778.667 448c0 136.465-102.507 248.989-234.722 264.772l0.021 64.368c167.625-16.078 298.701-157.302 298.701-329.14 0-182.622-148.045-330.667-330.667-330.667-171.838 0-313.063 131.076-329.14 298.701l64.368 0.021c15.783-132.215 128.307-234.722 264.772-234.722 147.277 0 266.667 119.39 266.667 266.667z" />
<glyph unicode="&#xe94e;" glyph-name="icon_lock_16px" d="M632.393 737.155c25.29-24.088 39.607-57.489 39.607-92.416v-4.733c0-17.673 14.33-32 32-32s32 14.327 32 32v4.733c0 52.442-21.491 102.593-59.469 138.761-92.138 87.75-236.925 87.75-329.062 0l-10.443-9.946c-31.307-29.816-49.026-71.161-49.026-114.394v-19.155c0-17.673 14.327-32 32-32s32 14.327 32 32v19.155c0 25.718 10.54 50.312 29.164 68.049l10.443 9.946c67.42 64.21 173.366 64.21 240.786 0zM704 512.006c35.347 0 64-28.653 64-64v-255.999c0-35.347-28.653-64-64-64h-384c-35.346 0-64 28.653-64 64v255.999c0 35.347 28.654 64 64 64h384zM320 576.006c-70.692 0-128-57.308-128-128v-255.999c0-70.694 57.308-128 128-128h384c70.694 0 128 57.306 128 128v255.999c0 70.692-57.306 128-128 128h-384zM576 320c0 35.346-28.654 64-64 64s-64-28.654-64-64c0-23.686 12.87-44.371 32-55.437v-72.563c0-17.67 14.327-32 32-32s32 14.33 32 32v72.563c19.13 11.066 32 31.75 32 55.437z" />
<glyph unicode="&#xe94f;" glyph-name="icon_lock_24px" d="M640.418 758.888c26.978-24.866 42.249-59.345 42.249-95.401v-4.886c0-18.244 15.283-33.033 34.133-33.033s34.133 14.79 34.133 33.033v4.886c0 54.136-22.925 105.906-63.433 143.242-98.283 90.583-252.719 90.583-351.001 0l-11.139-10.267c-33.394-30.779-52.294-73.459-52.294-118.088v-19.773c0-18.244 15.282-33.033 34.133-33.033s34.133 14.79 34.133 33.033v19.773c0 26.548 11.243 51.937 31.108 70.247l11.139 10.267c71.916 66.283 184.923 66.283 256.838 0zM716.8 526.468c37.705 0 68.267-29.581 68.267-66.069v-264.265c0-36.489-30.562-66.069-68.267-66.069h-409.6c-37.703 0-68.267 29.581-68.267 66.069v264.265c0 36.489 30.564 66.069 68.267 66.069h409.6zM307.2 592.534c-75.405 0-136.533-59.158-136.533-132.135v-264.265c0-72.977 61.128-132.134 136.533-132.134h409.6c75.405 0 136.533 59.157 136.533 132.134v264.265c0 72.977-61.129 132.135-136.533 132.135h-409.6zM580.267 328.26c0 36.489-30.562 66.069-68.267 66.069s-68.267-29.581-68.267-66.069c0-24.452 13.73-45.803 34.133-57.229v-74.906c0-18.244 15.283-33.033 34.133-33.033s34.133 14.788 34.133 33.033v74.906c20.403 11.426 34.133 32.777 34.133 57.229z" />
<glyph unicode="&#xe950;" glyph-name="Icon_Logout_24" d="M293.333 869.333v-64h-138.667v-704h138.667v-64h-202.667v832h202.667zM713.472 689.116l210.667-213.331 22.447-22.451-22.447-22.447-210.667-213.333-45.611 44.898 157.069 158.882h-520.93v64h520.93l-157.069 158.886 45.611 44.897z" />
<glyph unicode="&#xe951;" glyph-name="icon_mail_16px" d="M128 659.985v12.015c0 53.020 39.674 96 88.616 96h590.77c48.806 0 88.397-42.748 88.614-95.569l-0.25-0.196 0.25-0.234v-21.071l-384-266.929-384 266.929v9.057zM834.464 684.81c-4.563 11.296-14.97 19.19-27.078 19.19h-590.77c-12.109 0-22.516-7.894-27.077-19.19l322.461-224.152 322.464 224.152zM175.94 531.126c7.043-5.688 11.137-14.256 11.137-23.31v-283.816c0-17.67 13.224-32 29.539-32h590.77c16.314 0 29.536 14.33 29.536 32v283.816c0 9.054 4.096 17.622 11.136 23.31 9.466 7.642 22.816 8.175 32.858 1.313l1.146-0.781c8.723-5.961 13.939-15.845 13.939-26.41v-281.248c0-53.018-39.674-96-88.614-96h-590.77c-48.941 0-88.616 42.982-88.616 96v281.248c0 10.565 5.217 20.449 13.94 26.41l1.144 0.781c10.042 6.862 23.395 6.328 32.856-1.313z" />
<glyph unicode="&#xe952;" glyph-name="icon_mail_24px" d="M128 659.985v12.015c0 53.019 39.674 96 88.615 96h590.77c48.806 0 88.401-42.748 88.614-95.569l-0.247-0.196 0.247-0.234v-21.071l-384-266.929-384 266.929v9.057zM834.462 684.81c-4.561 11.296-14.967 19.19-27.076 19.19h-590.77c-12.109 0-22.516-7.894-27.076-19.19l322.461-224.151 322.462 224.151zM181.594 529.958c3.568-5.094 5.483-11.162 5.483-17.382v-288.576c0-17.673 13.225-32 29.538-32h590.77c16.311 0 29.538 14.327 29.538 32v293.995c0 2.692 0.828 5.321 2.372 7.526l3.844 5.483c13.521 19.301 43.081 15.825 51.755-6.084 0.73-1.843 1.105-3.806 1.105-5.786v-295.134c0-53.018-39.676-96-88.614-96h-590.77c-48.941 0-88.615 42.982-88.615 96v292.732c0 3.567 0.675 7.104 1.988 10.419 8.298 20.954 36.562 24.277 49.493 5.82l2.113-3.012zM896 672.431l2.654-3.341 1.621 1.288-0.009 2.071-4.267-0.017zM895.753 672.234l-2.654 3.341-3.857-3.065 3.584-3.38 2.927 3.104zM896 672h4.267v1.841l-1.34 1.263-2.927-3.104zM896 650.929l2.436-3.503 1.83 1.273v2.23h-4.267zM512 384l-2.436-3.503 2.436-1.694 2.436 1.694-2.436 3.503zM128 650.929h-4.267v-2.23l1.831-1.273 2.435 3.503zM834.462 684.81l2.436-3.503 2.795 1.943-1.276 3.157-3.955-1.597zM189.539 684.81l-3.956 1.597-1.275-3.157 2.796-1.943 2.435 3.503zM512 460.659l-2.436-3.503 2.436-1.694 2.436 1.694-2.436 3.503zM181.594 529.958v0zM839.296 525.521v0zM843.14 531.004v0zM894.895 524.919v0zM129.988 527.151v0zM179.481 532.971v0zM132.267 659.985v12.015h-8.533v-12.015h8.533zM216.615 772.267c-51.612 0-92.882-45.219-92.882-100.267h8.533c0 50.991 38.079 91.733 84.349 91.733v8.533zM807.386 772.267h-590.77v-8.533h590.77v8.533zM900.267 672.448c-0.222 54.844-41.408 99.819-92.881 99.819v-8.533c46.144 0 84.143-40.521 84.348-91.32l8.533 0.035zM898.406 668.893l0.247 0.197-5.308 6.682-0.247-0.196 5.308-6.682zM892.826 669.13l0.247-0.234 5.854 6.209-0.247 0.234-5.854-6.208zM891.733 672v-21.071h8.533v21.071h-8.533zM893.564 654.432l-384-266.929 4.873-7.006 384 266.928-4.873 7.007zM514.436 387.503l-384.001 266.929-4.871-7.007 383.999-266.928 4.873 7.006zM132.267 650.929v9.057h-8.533v-9.057h8.533zM807.386 699.733c10.155 0 19.127-6.628 23.121-16.521l7.91 3.194c-5.124 12.7-16.969 21.859-31.031 21.859v-8.533zM216.615 699.733h590.77v8.533h-590.77v-8.533zM193.495 683.213c3.993 9.893 12.966 16.521 23.12 16.521v8.533c-14.064 0-25.906-9.159-31.033-21.859l7.913-3.194zM187.104 681.306l322.46-224.15 4.873 7.006-322.462 224.151-4.87-7.007zM514.436 457.156l322.462 224.15-4.873 7.007-322.462-224.151 4.873-7.006zM191.344 512.576c0 7.095-2.184 14.020-6.255 19.827l-6.989-4.894c3.066-4.378 4.71-9.587 4.71-14.933h8.533zM191.344 224v288.576h-8.533v-288.576h8.533zM216.615 196.267c-13.642 0-25.271 12.087-25.271 27.733h-8.533c0-19.703 14.82-36.267 33.805-36.267v8.533zM807.386 196.267h-590.77v-8.533h590.77v8.533zM832.657 224c0-15.646-11.631-27.733-25.271-27.733v-8.533c18.982 0 33.805 16.563 33.805 36.267h-8.533zM832.657 517.995v-293.995h8.533v293.995h-8.533zM835.802 527.97c-2.048-2.923-3.145-6.409-3.145-9.975h8.533c0 1.818 0.559 3.588 1.6 5.077l-6.989 4.898zM839.646 533.454l-3.844-5.484 6.989-4.898 3.844 5.487-6.989 4.895zM898.863 526.49c-9.929 25.069-43.746 29.046-59.217 6.964l6.989-4.895c11.571 16.515 36.868 13.541 44.297-5.21l7.932 3.14zM900.267 519.134c0 2.517-0.478 5.013-1.404 7.356l-7.932-3.14c0.529-1.344 0.802-2.773 0.802-4.215h8.533zM900.267 224v295.134h-8.533v-295.134h8.533zM807.386 123.733c51.61 0 92.881 45.218 92.881 100.267h-8.533c0-50.991-38.080-91.733-84.348-91.733v-8.533zM216.615 123.733h590.77v8.533h-590.77v-8.533zM123.733 224c0-55.049 41.27-100.267 92.882-100.267v8.533c-46.269 0-84.349 40.742-84.349 91.733h-8.533zM123.733 516.732v-292.732h8.533v292.732h-8.533zM126.022 528.725c-1.512-3.819-2.288-7.889-2.288-11.994h8.533c0 3.029 0.573 6.033 1.689 8.849l-7.934 3.145zM182.976 535.421c-14.881 21.238-47.406 17.414-56.954-6.696l7.934-3.145c7.046 17.795 31.050 20.617 42.032 4.945l6.988 4.895zM185.089 532.403l-2.113 3.018-6.988-4.895 2.113-3.017 6.989 4.894z" />
<glyph unicode="&#xe953;" glyph-name="Icon_Minus_16px" d="M832 400h-640v96h640v-96z" />
<glyph unicode="&#xe954;" glyph-name="Icon_Pause_24" d="M938.667 448c0 235.642-191.027 426.667-426.667 426.667-235.642 0-426.667-191.025-426.667-426.667 0-235.639 191.025-426.667 426.667-426.667 235.639 0 426.667 191.027 426.667 426.667zM384 618.667h85.333v-341.333h-85.333v341.333zM554.667 618.667h85.333v-341.333h-85.333v341.333z" />
<glyph unicode="&#xe955;" glyph-name="icon_phone_16px" d="M248.235 806.576c34.043 33.899 89.236 33.899 123.279 0l92.156-91.768c34.043-33.899 34.043-88.86 0-122.759l-60.326-60.072 12.94-25.771c37.454-74.593 100.317-133.388 177.228-165.977l61.523 61.263c34.042 33.899 89.235 33.899 123.277 0l92.16-91.77c34.042-33.894 34.042-88.858 0-122.758l-88.224-87.853c-35.661-35.507-89.773-45.12-135.565-24.077-213.089 97.939-386.362 265.172-491.319 474.202l-13.806 27.496c-24.712 49.215-15.025 108.654 24.047 147.562l82.631 82.284zM330.42 765.656c-11.347 11.299-29.745 11.299-41.092 0l-82.631-82.284c-21.385-21.295-26.687-53.827-13.162-80.762l13.806-27.496c99.055-197.276 262.586-355.108 463.692-447.537 23.686-10.886 51.674-5.914 70.118 12.454l88.224 87.853c11.347 11.296 11.347 29.619 0 40.922l-92.16 91.766c-11.347 11.299-29.741 11.299-41.088 0l-67.052-66.767c-13.124-13.069-32.806-17.094-50.039-10.227-93.357 37.185-169.765 107.194-214.732 196.748l-15.391 30.652c-9.724 19.364-5.912 42.752 9.462 58.061l64.201 63.93c11.347 11.3 11.347 29.62 0 40.92l-92.157 91.768z" />
<glyph unicode="&#xe956;" glyph-name="icon_phone_24px" d="M255.91 808.962c30.803 30.717 80.745 30.717 111.549 0l105.702-105.404c30.801-30.717 30.801-80.52 0-111.237l-64.852-64.666 11.45-22.839c35.989-71.778 96.132-128.525 169.745-160.435l66.146 65.963c30.801 30.716 80.742 30.716 111.548 0l105.698-105.404c30.805-30.72 30.805-80.521 0-111.241l-94.263-93.999c-36.207-36.105-91.14-45.875-137.63-24.478-210.202 96.742-381.126 261.948-484.66 468.436l-15.113 30.141c-24.115 48.095-14.662 106.182 23.467 144.204l91.214 90.959zM321.527 763.159c-5.436 5.421-14.249 5.421-19.685 0l-91.214-90.959c-18.359-18.307-22.91-46.275-11.299-69.431l15.113-30.142c96.938-193.332 256.974-348.012 453.782-438.593 21.777-10.022 47.514-5.444 64.478 11.469l94.263 94.003c5.436 5.419 5.436 14.208 0 19.627l-105.698 105.404c-5.436 5.423-14.251 5.423-19.686 0l-73.459-73.25c-14.007-13.969-35.012-18.27-53.406-10.931-92.629 36.949-168.44 106.509-213.057 195.494l-15.123 30.161c-10.31 20.565-6.269 45.398 10.033 61.655l70.657 70.46c5.436 5.421 5.436 14.209 0 19.63l-105.699 105.404z" />
<glyph unicode="&#xe957;" glyph-name="Icon_Play_24" d="M768 448l-426.667 256v-512l426.667 256z" />
<glyph unicode="&#xe958;" glyph-name="Icon_Plus_16" d="M559.991 704v-208.002h208.009v-96h-208.009v-207.998h-96v207.998h-207.991v96h207.991v208.002h96z" />
<glyph unicode="&#xe959;" glyph-name="Icon_Plus_24" d="M544 704v-224h224v-64h-224v-224h-64v224h-224v64h224v224h64z" />
<glyph unicode="&#xe95a;" glyph-name="Icon_Reload_24" d="M514.202 836.266c-212.915 0-385.465-173.862-385.465-388.266s172.55-388.267 385.465-388.267c109.449 0 208.282 45.986 278.4 119.723l2.923 3.072-48.491 46.793-2.965-3.115c-57.98-60.971-139.503-98.863-229.867-98.863-175.754 0-318.285 143.535-318.285 320.657s142.531 320.655 318.285 320.655c125.692 0 234.441-73.418 286.165-180.090l-175.091 34.408-12.851-66.362 281.365-55.291 54.878 283.374-65.933 12.957-31.279-161.503c-65.741 119.313-192.090 200.117-337.254 200.117z" />
<glyph unicode="&#xe95b;" glyph-name="Icon_Relocate_24px" d="M790.626 961.294l-45.252-45.255 137.37-137.373h-584.077c-88.366 0-160-71.634-160-160v-128h64v128c0 53.019 42.981 96 96 96h584.077l-137.37-137.373 45.252-45.254 214.63 214.626-214.63 214.628zM254.706-65.293l45.255 45.252-137.373 137.374h584.079c88.367 0 160 71.633 160 160v128h-64v-128c0-53.018-42.982-96-96-96h-584.079l137.373 137.374-45.255 45.252-214.627-214.626 214.627-214.626z" />
<glyph unicode="&#xe95c;" glyph-name="Icon_Rub_24" d="M565.333 480h-85.333v85.333h85.333c23.565 0 42.667-19.103 42.667-42.667s-19.102-42.667-42.667-42.667zM512 21.333c-235.642 0-426.667 191.027-426.667 426.667 0 235.642 191.025 426.667 426.667 426.667 235.639 0 426.667-191.025 426.667-426.667 0-235.639-191.027-426.667-426.667-426.667zM565.333 629.333h-149.333v-256h-53.333v-64h53.333v-53.333h64v53.333h53.333v64h-53.333v42.667h85.333c58.91 0 106.667 47.757 106.667 106.667s-47.757 106.667-106.667 106.667z" />
<glyph unicode="&#xe95d;" glyph-name="Icon_Rub_Cross_24" d="M480 480h85.333c23.565 0 42.667 19.102 42.667 42.667s-19.102 42.667-42.667 42.667h-85.333v-85.333zM790.229 771.481c-74.701 64.31-171.925 103.186-278.229 103.186-235.642 0-426.667-191.025-426.667-426.667 0-106.304 38.876-203.529 103.186-278.229l95.523 95.522 45.255-45.252-95.523-95.522c74.702-64.311 171.924-103.185 278.226-103.185 235.639 0 426.667 191.027 426.667 426.667 0 106.302-38.874 203.524-103.185 278.226l-95.518-95.52-45.257 45.255 95.522 95.52zM416 629.333h149.333c58.91 0 106.667-47.756 106.667-106.667s-47.757-106.667-106.667-106.667h-85.333v-42.667h53.333v-64h-53.333v-53.333h-64v53.333h-53.333v64h53.333v256z" />
<glyph unicode="&#xe95e;" glyph-name="Icon_Ruble_24" d="M550.123 383.078h-246.916v70.084h245.295c20.766 0 37.53 3.247 50.291 9.737 12.762 6.703 22.063 15.898 27.904 27.58 5.841 11.895 8.759 25.523 8.759 40.879 0 14.278-3.029 27.581-9.084 39.911-6.059 12.329-15.36 22.28-27.904 29.85-12.331 7.571-28.335 11.356-48.021 11.356h-92.147v-401.685h-89.227v472.418h181.050c36.988 0 68.463-6.49 94.417-19.468 25.958-12.978 45.858-30.824 59.703-53.536 14.059-22.712 21.090-48.777 21.090-78.193 0-31.151-7.138-57.865-21.414-80.145-14.059-22.281-34.176-39.369-60.352-51.264-25.954-11.682-57.105-17.523-93.444-17.523zM563.102 352.58v-70.409h-259.895v70.409h259.895z" />
<glyph unicode="&#xe95f;" glyph-name="Icon_Search_24" d="M687.010 227.738l143.697-143.697 45.252 45.252-143.697 143.697c48.969 59.085 78.404 134.942 78.404 217.677 0 188.513-152.819 341.333-341.333 341.333s-341.333-152.82-341.333-341.333c0-188.514 152.82-341.333 341.333-341.333 82.735 0 158.592 29.436 217.677 78.404zM746.667 490.667c0-153.169-124.164-277.333-277.333-277.333-153.167 0-277.333 124.164-277.333 277.333 0 153.167 124.166 277.333 277.333 277.333 153.169 0 277.333-124.166 277.333-277.333z" />
<glyph unicode="&#xe960;" glyph-name="Icon_Search_32" d="M754.23 160.518l215.146-215.146 45.254 45.258-215.146 215.146c67.821 78.259 108.858 180.365 108.858 292.051 0 246.415-199.757 446.173-446.17 446.173-246.415 0-446.173-199.758-446.173-446.173 0-246.413 199.758-446.17 446.173-446.17 111.69 0 213.795 41.040 292.058 108.861zM844.342 497.827c0-211.066-171.104-382.17-382.17-382.17-211.069 0-382.173 171.104-382.173 382.17 0 211.069 171.104 382.173 382.173 382.173 211.066 0 382.17-171.104 382.17-382.173z" />
<glyph unicode="&#xe961;" glyph-name="icon_setting_16px" d="M426.667 832l-4.741-24-18.015-87.692c-28.918-11.077-54.993-26.654-78.696-45.231l-88.178 29.539-23.704 7.384-12.326-21.231-60.682-101.539-12.326-21.231 18.015-15.692 68.267-58.154c-2.489-15.115-5.689-30.23-5.689-46.154s3.2-31.039 5.689-46.154l-68.267-58.154-18.015-15.692 12.326-21.229 60.682-101.542 12.326-21.229 23.704 7.386 88.178 29.536c23.704-18.573 49.778-34.15 78.696-45.229l18.015-87.693 4.741-24h170.666l4.741 24 18.015 87.693c28.916 11.078 54.989 26.656 78.695 45.229l88.179-29.536 23.706-7.386 12.326 21.229 60.678 101.542 12.326 21.229-18.016 15.692-68.262 58.154c2.483 15.115 5.683 30.23 5.683 46.154s-3.2 31.039-5.683 46.154l68.262 58.154 18.016 15.692-12.326 21.231-60.678 101.539-12.326 21.231-23.706-7.384-88.179-29.539c-23.706 18.577-49.779 34.154-78.695 45.231l-18.015 87.692-4.741 24h-170.666zM475.971 772.923h72.059l15.171-76.615 3.793-17.539 17.067-5.539c34.488-10.5 65.777-28.269 91.972-51.692l13.274-12 17.062 5.539 76.8 25.846 36.032-60-60.678-52.615-14.227-11.077 4.742-17.539c3.91-16.846 5.69-34.038 5.69-51.692s-1.779-34.846-5.69-51.692l-3.795-17.539 13.28-11.077 60.678-52.614-36.032-60-76.8 25.843-17.062 5.542-13.274-12c-26.195-23.424-57.484-41.197-91.972-51.693l-17.067-5.542-3.793-17.536-15.171-76.614h-72.059l-15.171 76.614-3.793 17.536-17.067 5.542c-34.488 10.496-65.777 28.269-91.97 51.693l-13.274 12-17.067-5.542-76.8-25.843-36.029 60 60.682 52.614 14.222 11.077-4.74 17.539c-3.911 16.846-5.689 34.038-5.689 51.692s1.778 34.846 5.689 51.692l4.74 17.539-14.222 11.077-60.682 52.615 36.029 60 76.8-25.846 17.067-5.539 13.274 12c26.193 23.423 57.482 41.192 91.97 51.692l17.067 5.539 3.793 17.539 15.171 76.615zM512 595.692c-83.437 0-151.704-66.461-151.704-147.692s68.267-147.693 151.704-147.693c83.437 0 151.706 66.462 151.706 147.693s-68.269 147.692-151.706 147.692zM512 536.616c50.607 0 91.022-39.347 91.022-88.616s-40.415-88.616-91.022-88.616c-50.607 0-91.022 39.347-91.022 88.616s40.415 88.616 91.022 88.616z" />
<glyph unicode="&#xe962;" glyph-name="Icon_Settings_24" d="M394.667 21.333l-17.067 136.533c-9.245 3.554-17.949 7.821-26.112 12.8s-16.171 10.313-24.021 16l-126.933-53.333-117.333 202.667 109.867 83.2c-0.711 4.979-1.067 9.771-1.067 14.379v28.8c0 4.638 0.355 9.442 1.067 14.421l-109.867 83.2 117.333 202.667 126.933-53.333c7.822 5.689 16 11.022 24.533 16s17.067 9.245 25.6 12.8l17.067 136.533h234.667l17.067-136.533c9.246-3.555 17.963-7.822 26.155-12.8s16.183-10.311 23.979-16l126.933 53.333 117.333-202.667-109.867-83.2c0.713-4.979 1.067-9.783 1.067-14.421v-28.757c0-4.638-0.713-9.442-2.133-14.421l109.867-83.2-117.333-202.667-125.867 53.333c-7.821-5.687-16-11.021-24.533-16s-17.067-9.246-25.6-12.8l-17.067-136.533h-234.667zM514.133 298.667c41.246 0 76.446 14.579 105.6 43.733s43.733 64.354 43.733 105.6c0 41.246-14.579 76.446-43.733 105.6s-64.354 43.733-105.6 43.733c-41.954 0-77.342-14.578-106.155-43.733-28.815-29.154-43.207-64.354-43.179-105.6 0-41.246 14.407-76.446 43.221-105.6 28.813-29.154 64.183-43.733 106.112-43.733z" />
<glyph unicode="&#xe963;" glyph-name="Icon_Share_24" d="M896 448l-298.667 298.667v-170.667c-298.667-42.667-426.667-256-469.333-469.333 106.667 149.333 256 217.6 469.333 217.6v-174.933l298.667 298.667z" />
<glyph unicode="&#xe964;" glyph-name="Icon_Sorting_16" d="M286.063 222.061l67.882 67.878 158.059-158.054 158.057 158.054 67.885-67.878-225.942-225.946-225.941 225.946zM737.939 673.942l-67.885-67.882-158.058 158.059-158.059-158.059-67.882 67.882 225.941 225.941 225.943-225.941z" />
<glyph unicode="&#xe965;" glyph-name="Icon_Stats_1_24" d="M598.43 789.854h-170.978v-683.064h170.978v683.064zM362.666 618.889h-170.979v-512.082h170.979v512.082zM661.333 405.175h170.978v-298.359h-170.978v298.359z" />
<glyph unicode="&#xe966;" glyph-name="Icon_Stats_2_24" d="M480 789.333h-298.667v-682.667h298.667v682.667zM842.667 533.333h-298.667v-426.667h298.667v426.667z" />
<glyph unicode="&#xe967;" glyph-name="Icon_Stop_24" d="M512 21.333c-235.642 0-426.667 191.027-426.667 426.667 0 235.642 191.025 426.667 426.667 426.667 235.639 0 426.667-191.025 426.667-426.667 0-235.639-191.027-426.667-426.667-426.667zM298.667 416h426.667v64h-426.667v-64z" />
<glyph unicode="&#xe968;" glyph-name="Icon_Success_32" d="M512-16c-256.26 0-464 207.741-464 464s207.74 464 464 464c256.259 0 464-207.74 464-464s-207.741-464-464-464zM512-64c282.771 0 512 229.229 512 512s-229.229 512-512 512c-282.77 0-512-229.23-512-512s229.23-512 512-512zM512-16c-256.26 0-464 207.741-464 464s207.74 464 464 464c256.259 0 464-207.74 464-464s-207.741-464-464-464zM720.778 558.838c9.478 9.267 9.648 24.464 0.384 33.939-9.267 9.478-24.464 9.648-33.939 0.384l-245.040-239.597-105.405 103.062c-9.475 9.267-24.671 9.094-33.938-0.381-9.267-9.478-9.096-24.672 0.381-33.939l122.18-119.469c9.328-9.117 24.234-9.117 33.558 0l261.818 256z" />
<glyph unicode="&#xe969;" glyph-name="icon_target_channel_24px" d="M938.667 448c0-235.639-191.027-426.667-426.667-426.667-56.58 0-110.59 11.012-160 31.014v70.097c48.26-23.761 102.571-37.111 160-37.111 200.294 0 362.667 162.372 362.667 362.667s-162.372 362.667-362.667 362.667c-200.295 0-362.667-162.371-362.667-362.667 0-57.429 13.348-111.74 37.112-160h-70.097c-20 49.408-31.014 103.42-31.014 160 0 235.642 191.025 426.667 426.667 426.667 235.639 0 426.667-191.025 426.667-426.667zM512 213.333c-29.44 0-57.617 5.423-83.58 15.322l-48.57-48.567c39.84-19.691 84.704-30.754 132.149-30.754 164.949 0 298.667 133.717 298.667 298.667s-133.717 298.667-298.667 298.667c-164.949 0-298.667-133.718-298.667-298.667 0-47.445 11.064-92.309 30.752-132.151l48.569 48.572c-9.9 25.963-15.321 54.14-15.321 83.58 0 129.603 105.064 234.667 234.667 234.667s234.667-105.064 234.667-234.667c0-129.604-105.062-234.667-234.667-234.667zM576 448c0-35.345-28.655-64-64-64-5.734 0-11.29 0.755-16.576 2.167l-207.424-207.424v-114.743h-64v96h-96v64h114.745l207.422 207.424c-1.412 5.286-2.167 10.842-2.167 16.576 0 35.345 28.655 64 64 64s64-28.655 64-64z" />
<glyph unicode="&#xe96a;" glyph-name="icon_target_search_24px" d="M501.333 832c-206.186 0-373.333-167.147-373.333-373.333s167.147-373.333 373.333-373.333v-64c-241.533 0-437.333 195.802-437.333 437.333s195.801 437.333 437.333 437.333c241.532 0 437.333-195.801 437.333-437.333h-64c0 206.186-167.147 373.333-373.333 373.333zM256 458.667c0 135.494 109.839 245.333 245.333 245.333 135.492 0 245.333-109.839 245.333-245.333h64c0 170.84-138.492 309.333-309.333 309.333-170.84 0-309.333-138.493-309.333-309.333 0-170.842 138.493-309.333 309.333-309.333v64c-135.494 0-245.333 109.841-245.333 245.333zM501.333 640c-100.148 0-181.333-81.186-181.333-181.333s81.186-181.333 181.333-181.333c38.515 0 74.227 12.006 103.595 32.486l87.113-87.113 45.252 45.252-87.113 87.113c20.48 29.367 32.486 65.079 32.486 103.595 0 100.148-81.186 181.333-181.333 181.333zM384 458.667c0 64.802 52.531 117.333 117.333 117.333s117.333-52.531 117.333-117.333c0-64.802-52.531-117.333-117.333-117.333s-117.333 52.531-117.333 117.333z" />
<glyph unicode="&#xe96b;" glyph-name="icon_target_user_24px" d="M512 800c-170.84 0-309.333-138.493-309.333-309.333 0-48.589 11.181-94.481 31.080-135.317l-57.533-28.032c-24.062 49.378-37.548 104.832-37.548 163.349 0 206.186 167.147 373.333 373.333 373.333s373.333-167.147 373.333-373.333c0-58.517-13.487-113.971-37.547-163.349l-57.532 28.032c19.9 40.836 31.078 86.729 31.078 135.317 0 170.84-138.492 309.333-309.333 309.333zM330.667 490.667c0 100.148 81.186 181.333 181.333 181.333s181.333-81.186 181.333-181.333c0-28.429-6.519-55.249-18.116-79.117l57.566-27.968c15.74 32.397 24.55 68.757 24.55 107.085 0 135.494-109.841 245.333-245.333 245.333-135.494 0-245.333-109.839-245.333-245.333 0-38.327 8.812-74.688 24.55-107.085l57.567 27.968c-11.597 23.868-18.117 50.688-18.117 79.117zM618.667 490.667c0-58.91-47.757-106.667-106.667-106.667s-106.667 47.757-106.667 106.667c0 58.91 47.757 106.667 106.667 106.667s106.667-47.756 106.667-106.667zM711.791 300.177v-278.848h-399.499v278.848h399.499z" />
<glyph unicode="&#xe96c;" glyph-name="Icon_Trash_s_24" d="M512 755.2c-63.010 0-114.368-50.058-115.188-112.337h-149.343v-59.193h59.194l31.526-400.203h347.627l31.526 400.203h59.191v59.193h-149.342c-0.819 62.28-52.177 112.337-115.191 112.337zM512 696.007c30.221 0 54.635-23.753 55.45-53.144h-110.895c0.815 29.391 25.229 53.144 55.445 53.144z" />
<glyph unicode="&#xe96d;" glyph-name="Icon_Trash-24" d="M352 714.667h-224v-64h87.822l47.289-608h497.776l47.292 608h87.821v64h-224v10.667c0 88.366-71.633 160-160 160s-160-71.634-160-160v-10.667zM416 725.333c0 53.019 42.982 96 96 96s96-42.981 96-96v-10.667h-192v10.667z" />
<glyph unicode="&#xe96e;" glyph-name="icon_unblock_24px" d="M341.333 416h341.333v64h-341.333v-64zM896 448c0 212.077-171.921 384-384 384-212.077 0-384-171.923-384-384 0-212.079 171.923-384 384-384 212.079 0 384 171.921 384 384zM832 448c0-176.73-143.27-320-320-320s-320 143.27-320 320c0 176.731 143.269 320 320 320s320-143.269 320-320z" />
<glyph unicode="&#xe96f;" glyph-name="Icon_Upload_24" d="M489.553 766.885l-170.668-168 44.897-45.61 116.218 114.403v-350.263h64v350.263l116.22-114.403 44.894 45.61-170.667 168-22.447 22.449-22.447-22.449zM288 277.333h-64v-160h576v160h-64v-96h-448v96z" />
<glyph unicode="&#xe970;" glyph-name="Icon_User_24" d="M665.634 678.419c0-84.82-68.762-153.58-153.579-153.58-84.821 0-153.583 68.76-153.583 153.58s68.762 153.581 153.583 153.581c84.817 0 153.579-68.761 153.579-153.581zM768 422.451v-357.333h-511.938v357.333h511.938z" />
<glyph unicode="&#xe971;" glyph-name="Icon_User_32" d="M717.136 754.926c0-113.259-91.814-205.073-205.075-205.073-113.258 0-205.073 91.814-205.073 205.073s91.815 205.074 205.073 205.074c113.261 0 205.075-91.815 205.075-205.074zM853.821 413.136v-477.136h-683.579v477.136h683.579z" />
<glyph unicode="&#xe972;" glyph-name="Icon_User_Check_24" d="M426.722 524.838c84.821 0 153.583 68.76 153.583 153.58s-68.762 153.581-153.583 153.581c-84.821 0-153.582-68.761-153.582-153.581s68.761-153.58 153.582-153.58zM170.729 422.451v-357.333h255.938v357.333h-255.938zM640.004 61.41l235.959 235.959-45.257 45.257-190.703-190.707-105.374 105.374-45.257-45.257 150.63-150.626z" />
<glyph unicode="&#xe973;" glyph-name="Icon_Validation_24" d="M42.667 789.333h938.667v-640h-739.555l-199.111-170.667v810.667zM469.333 317.41l257.293 257.296-45.252 45.255-212.041-212.038-105.373 105.37-45.255-45.252 150.627-150.63z" />
<glyph unicode="&#xe975;" glyph-name="icon_view_24px" d="M401.067 763.733v-204.8h-204.8v204.8h204.8zM196.267 832c-37.703 0-68.267-30.564-68.267-68.267v-204.8c0-37.705 30.564-68.267 68.267-68.267h204.8c37.705 0 68.267 30.562 68.267 68.267v204.8c0 37.703-30.562 68.267-68.267 68.267h-204.8zM401.067 337.067v-204.8h-204.8v204.8h204.8zM196.267 405.333c-37.703 0-68.267-30.562-68.267-68.267v-204.8c0-37.705 30.564-68.267 68.267-68.267h204.8c37.705 0 68.267 30.562 68.267 68.267v204.8c0 37.705-30.562 68.267-68.267 68.267h-204.8zM827.733 763.733v-204.8h-204.8v204.8h204.8zM622.933 832c-37.705 0-68.267-30.564-68.267-68.267v-204.8c0-37.705 30.562-68.267 68.267-68.267h204.8c37.705 0 68.267 30.562 68.267 68.267v204.8c0 37.703-30.562 68.267-68.267 68.267h-204.8zM827.733 337.067v-204.8h-204.8v204.8h204.8zM622.933 405.333c-37.705 0-68.267-30.562-68.267-68.267v-204.8c0-37.705 30.562-68.267 68.267-68.267h204.8c37.705 0 68.267 30.562 68.267 68.267v204.8c0 37.705-30.562 68.267-68.267 68.267h-204.8z" />
<glyph unicode="&#xe976;" glyph-name="Icon_Wallet_24" d="M191.917 661.333c0 29.455 23.878 53.333 53.333 53.333h522.75v64h-522.75c-64.802 0-117.333-52.532-117.333-117.333v-21.333h0.082v-533.333h768.001v554.667h-704.083zM768 384c0-35.345-28.655-64-64-64-35.349 0-64 28.655-64 64s28.651 64 64 64c35.345 0 64-28.655 64-64z" />
<glyph unicode="&#xe978;" glyph-name="icon_sound_off_24px" d="M918.626 809.375l-768.001-768.001-45.25 45.252 767.999 767.999 45.252-45.25zM618.667 78.498l-204.375 136.085 204.375 204.335v-340.42zM878.626 678.917c57.271-65.607 92.036-151.441 92.041-245.415 0-128.346-64.781-241.566-163.29-308.71l-36.087 52.877c81.775 55.731 135.377 149.542 135.377 255.834 0 76.267-27.695 146.009-73.502 199.956l45.461 45.458zM787.75 588.042c34.27-42.173 54.912-95.933 54.916-154.54-0.004-80.282-38.613-151.59-98.125-196.292l-38.417 51.166c44.113 33.135 72.538 85.824 72.542 145.126-0.004 40.913-13.53 78.682-36.416 109.040l45.5 45.5zM256 327.748l-50.417-50.415h-120.25v298.667h170.667v-248.252zM618.667 690.417l-298.667-298.668v184.252l298.667 241.5v-127.084z" />
<glyph unicode="&#xe979;" glyph-name="icon_sound_on_24px" d="M618.667 78.494l-298.667 198.831v298.668l298.667 241.5v-738.998zM807.377 742.2c98.509-67.144 163.29-180.365 163.29-308.707 0-128.346-64.781-241.566-163.29-308.71l-36.087 52.877c81.775 55.731 135.377 149.542 135.377 255.834 0 106.289-53.602 200.058-135.377 255.791l36.087 52.916zM744.542 629.742c59.507-44.702 98.121-115.976 98.125-196.249-0.004-80.282-38.613-151.59-98.125-196.292l-38.417 51.166c44.113 33.135 72.538 85.824 72.542 145.126-0.004 59.294-28.437 111.948-72.542 145.082l38.417 51.167zM256 277.325h-170.667v298.668h170.667v-298.668z" />
</font>
</defs>
</svg>
